Register
Zapomniales hasla?
Wróć   Files4you.org - Forum wielotematyczne > Download > URZĄDZENIA MOBILNE > Multimedia > [Tablet] Na celowniku / Red Dot (2021)



Stare 14.02.2021, 16:18   #1
1nak
Zakaz pisania
 
Awatar 1nak
 
Domyślnie [Tablet] Na celowniku / Red Dot (2021)




Tytuł: Na celowniku / Red Dot
Gatunek: Thriller
Produkcja: Szwecja
Lektor: PL
Premiera: 11 lutego 2021 (świat)
Reżyseria: Alain Darborg


Opis: "Na celowniku" to thriller akcji osadzony w szwedzkich górach. Głównymi bohaterami są dobiegający trzydziestki David i Nadja, których małżeństwo przeżywa ciężkie chwile. Kiedy jednak kobieta zachodzi w ciążę, postanawiają wskrzesić swój związek w pięknych okolicznościach przyrody i wybrać się na narciarską wyprawę na północ Szwecji. Po kłótni z miejscowymi myśliwymi ich romantyczny wypad powoli zaczyna się jednak zmieniać w koszmar. Wkrótce na ich namiocie pojawia się czerwony znak celowniczy i muszą uciekać w mroźną dzicz. Ich jedynym towarzystwem w niebezpiecznych górach są tylko mierzący do nich łowcy. Jakby problemów było mało, podczas sadystycznego polowania o parę upomina się też jej zapomniana przeszłość.



DANE TECHNiCZNE:

Cytat
Format : MPEG-4
File size : 565 MiB
Duration : 1h 26mn
Overall bit rate : 917 Kbps

Video
ID : 1
Format : AVC
Format/Info : Advanced Video Codec
Format settings, CABAC : Yes
Format settings, ReFrames : 2 frames
Codec ID : avc1
Codec ID/Info : Advanced Video Coding
Duration : 1h 26mn
Bit rate : 716 Kbps
Width : 718 pixels
Height : 404 pixels
Display aspect ratio : 16:9
Frame rate mode : Constant
Frame rate : 29.970 fps
Color space : YUV
Chroma subsampling : 4:2:0
Bit depth : 8 bits
Scan type : Progressive
Bits/(Pixel*Frame) : 0.082
Stream size : 441 MiB (78%)

Audio
ID : 2
Format : AAC
Format/Info : Advanced Audio Codec
Format profile : LC
Codec ID : 40
Duration : 1h 26mn
Bit rate mode : Constant
Bit rate : 192 Kbps
Channel(s) : 2 channels
Channel positions : Front: L R
Sampling rate : 44.1 KHz
Compression mode : Lossy
Stream size : 120 MiB (21%)


Treść widoczna tylko dla użytkowników forum Files4You.org. Zaloguj się lub załóż darmowe konto aby otrzymać dostęp do niewidocznej treści.

1nak jest nieaktywny  
Słowa kluczowe związane z tematem [Tablet] Na celowniku / Red Dot (2021):
[Tablet] Na celowniku / Red Dot (2021) bez płacenia, [Tablet] Na celowniku / Red Dot (2021) no limits, [Tablet] Na celowniku / Red Dot (2021) bez premium, [Tablet] Na celowniku / Red Dot (2021) bez limitów, [Tablet] Na celowniku / Red Dot (2021) bez konta premium, [Tablet] Na celowniku / Red Dot (2021) za darmo, [Tablet] Na celowniku / Red Dot (2021) do pobrania, [Tablet] Na celowniku / Red Dot (2021) download, [Tablet] Na celowniku / Red Dot (2021) do ściągnięcia, [Tablet] Na celowniku / Red Dot (2021) free, [Tablet] Na celowniku / Red Dot (2021) files4you, [Tablet] Na celowniku / Red Dot (2021) exsite, [Tablet] Na celowniku / Red Dot (2021) zajefajna, [Tablet] Na celowniku / Red Dot (2021) peb, [Tablet] Na celowniku / Red Dot (2021) chomikuj, [Tablet] Na celowniku / Red Dot (2021) precyl, [Tablet] Na celowniku / Red Dot (2021) darkwarez, [Tablet] Na celowniku / Red Dot (2021) rar, [Tablet] Na celowniku / Red Dot (2021) filestube, [Tablet] Na celowniku / Red Dot (2021) elitewarez, [Tablet] Na celowniku / Red Dot (2021) catshare, [Tablet] Na celowniku / Red Dot (2021) rapidu, [Tablet] Na celowniku / Red Dot (2021) fileshark, [Tablet] Na celowniku / Red Dot (2021) lunaticfiles, [Tablet] Na celowniku / Red Dot (2021) uploadable, [Tablet] Na celowniku / Red Dot (2021) rapidgator, [Tablet] Na celowniku / Red Dot (2021) uploaded, [Tablet] Na celowniku / Red Dot (2021) turbobit, [Tablet] Na celowniku / Red Dot (2021) warez, [Tablet] Na celowniku / Red Dot (2021) portal, [Tablet] Na celowniku / Red Dot (2021) warez-bb
Przy okazji sprawdź poniższe tematy:

Podobne wątki
Wątek Autor wątku Forum Odpowiedzi Ostatni post / autor
Na celowniku / Red Dot (2021) robson8080 Filmy MQ/LQ 8 22.04.2022 16:34
Red Dot (2021) tokaj75 Blu-Ray, DVD-R & High Definition 0 14.02.2021 09:31
VA - Three Dot House Best Of 2016: Best Of Deep House and Nu Disco (2016) kingdevil Inne gatunki 0 16.09.2016 13:01
Three Dot House Best Of 2016: Best Of Deep House and Nu Disco (2016) musbest Live sety / Mixy 0 26.08.2016 04:45
Kayo Dot - Plastic House on Base of Sky (2016) mp3de Metal & Rock & Punk 0 6.07.2016 08:14

Narzędzia wątku




Nabór do ekipy!



Files4You.org - Kontakt - Archiwum - Warunki korzystania z serwisu - Grupy - Na górę

Powered by vBulletin®
Files4You.org 2005-2022
Czasy w strefie GMT +1. Teraz jest 08:46.