Register
Zapomniales hasla?
Wróć   Files4you.org - Forum wielotematyczne > Download > FILMY > Filmy 3D > Czarna Pantera / Black Panther (2018)



Stare 26.05.2018, 07:31   #1
*Motylek*
Gość
 
Awatar *Motylek*
 
Domyślnie Czarna Pantera / Black Panther (2018)

Czarna Pantera / Black Panther (2018) 1080p.3D.BluRay.Half-OU.x264.TrueHD.7.1.Atmos-FGT | DUBBiNG i NAPiSY PL




reżyseria: Ryan Coogler
scenariusz: Joe Robert Cole, Ryan Coogler
gatunek: Akcja, Sci-Fi
produkcja: USA
premiera: 14 lutego 2018 (Polska) 22 lutego 2017 (świat)


T'Challa po śmierci ojca wraca do rodzinnego kraju, by objąć tron. Wkrótce Wakanda zostaje napadnięta przez dawnego wroga. Młody władca zbiera sojuszników, aby pokonać przeciwnika i ochronić swój lud. Jako Czarna Pantera staje w obronie nie tylko swojej ojczyzny, ale i całego świata.






Informacje o pliku video:



Video
ID : 1
Format : AVC
Format/Info : Advanced Video Codec
Format profile : [email protected]
Format settings : CABAC / 3 Ref Frames
Format settings, CABAC : Yes
Format settings, ReFrames : 3 frames
Codec ID : V_MPEG4/ISO/AVC
Duration : 2 h 14 min
Bit rate : 16.0 Mb/s
Width : 1 920 pixels
Height : 1 080 pixels
Display aspect ratio : 16:9
Frame rate mode : Constant
Frame rate : 23.976 (24000/1001) FPS
Color space : YUV
Chroma subsampling : 4:2:0
Bit depth : 8 bits
Scan type : Progressive
Bits/(Pixel*Frame) : 0.322
Stream size : 15.0 GiB (63%)
Title : Black.Panther.2018.1080p.3D.BluRay.Half-OU.x264.TrueHD.7.1.Atmos-FGT
Writing library : x264 core 148

Default : Yes
Forced : No
Color range : Limited
Color primaries : BT.709
Transfer characteristics : BT.709
Matrix coefficients : BT.709

Audio #1
ID : 2
Format : TrueHD
Format profile : TrueHD+Atmos / TrueHD
Codec ID : A_TRUEHD
Duration : 2 h 14 min
Bit rate mode : Variable
Bit rate : 4 327 kb/s
Maximum bit rate : 7 134 kb/s
Channel(s) : Object Based / 8 channels
Channel positions : Object Based / Front: L C R, Side: L R, Back: L R, LFE
Sampling rate : / 48.0 kHz
Frame rate : 1 200.000 FPS (40 SPF)
Compression mode : Lossless
Stream size : 4.07 GiB (17%)
Title : Black.Panther.2018.1080p.3D.BluRay.Half-OU.x264.TrueHD.7.1.Atmos-FGT
Language : English
Default : Yes
Forced : No

Audio #2
ID : 3
Format : AC-3
Format/Info : Audio Coding 3
Codec ID : A_AC3
Duration : 2 h 14 min
Bit rate mode : Constant
Bit rate : 640 kb/s
Channel(s) : 6 channels
Channel positions : Front: L C R, Side: L R, LFE
Sampling rate : 48.0 kHz
Frame rate : 31.250 FPS (1536 SPF)
Bit depth : 16 bits
Compression mode : Lossy
Stream size : 616 MiB (3%)
Title : Black.Panther.2018.1080p.3D.BluRay.Half-OU.x264.TrueHD.7.1.Atmos-FGT
Language : English
Service kind : Complete Main
Default : No
Forced : No



Audio #6
ID : 7
Format : AC-3
Format/Info : Audio Coding 3
Codec ID : A_AC3
Duration : 2 h 14 min
Bit rate mode : Constant
Bit rate : 640 kb/s
Channel(s) : 6 channels
Channel positions : Front: L C R, Side: L R, LFE
Sampling rate : 48.0 kHz
Frame rate : 31.250 FPS (1536 SPF)
Bit depth : 16 bits
Compression mode : Lossy
Stream size : 616 MiB (3%)
Title : Black.Panther.2018.1080p.3D.BluRay.Half-OU.x264.TrueHD.7.1.Atmos-FGT
Language : Polish
Service kind : Complete Main
Default : No
Forced : No




Text #1
ID : 9
Format : PGS
Muxing mode : zlib
Codec ID : S_HDMV/PGS
Codec ID/Info : Picture based subtitle format used on BDs/HD-DVDs
Duration : 2 h 14 min
Bit rate : 60.6 kb/s
Count of elements : 3670
Stream size : 58.2 MiB (0%)
Title : English-PGS
Language : English
Default : Yes
Forced : No




Text #5
ID : 13
Format : PGS
Muxing mode : zlib
Codec ID : S_HDMV/PGS
Codec ID/Info : Picture based subtitle format used on BDs/HD-DVDs
Duration : 2 h 14 min
Bit rate : 44.0 kb/s
Count of elements : 2874
Stream size : 42.2 MiB (0%)
Title : Polish-PGS
Language : Polish
Default : No
Forced : No






Treść widoczna tylko dla użytkowników forum Files4You.org. Zaloguj się lub załóż darmowe konto aby otrzymać dostęp do niewidocznej treści.





Czarna Pantera / Black Panther (2018) 1080p.3D.BluRay.Half-SBS.x264.TrueHD.7.1.Atmos-FGT | DUBBiNG i NAPiSY PL









Informacje o pliku video:

Video
ID : 1
Format : AVC
Format/Info : Advanced Video Codec
Format profile : [email protected]
Format settings : CABAC / 3 Ref Frames
Format settings, CABAC : Yes
Format settings, ReFrames : 3 frames
Codec ID : V_MPEG4/ISO/AVC
Duration : 2 h 14 min
Bit rate : 15.5 Mb/s
Width : 1 920 pixels
Height : 1 080 pixels
Display aspect ratio : 16:9
Frame rate mode : Constant
Frame rate : 23.976 (24000/1001) FPS
Color space : YUV
Chroma subsampling : 4:2:0
Bit depth : 8 bits
Scan type : Progressive
Bits/(Pixel*Frame) : 0.312
Stream size : 14.5 GiB (62%)
Title : Black.Panther.2018.1080p.3D.BluRay.Half-SBS.x264.TrueHD.7.1.Atmos-FGT
Writing library : x264 core 148
Encoding settings : cabac=1 / ref=3 / deblock=1:-1:-1 / analyse=0x3:0 / me=hex / subme=5 / psy=1 / psy_rd=1.00:0.00 / mixed_ref=0 / me_range=16 / chroma_me=1 / trellis=1 / 8x8dct=1 / cqm=0 / deadzone=21,11 / fast_pskip=0 / chroma_qp_offset=0 / threads=24 / lookahead_threads=6 / sliced_threads=0 / nr=0 / decimate=1 / interlaced=0 / bluray_compat=0 / constrained_intra=0 / bframes=2 / b_pyramid=0 / b_adapt=1 / b_bias=0 / direct=1 / weightb=0 / open_gop=0 / weightp=0 / keyint=24 / keyint_min=2 / scenecut=40 / intra_refresh=0 / rc=abr / mbtree=0 / bitrate=15500 / ratetol=1.0 / qcomp=0.60 / qpmin=0 / qpmax=69 / qpstep=4 / ip_ratio=1.40 / pb_ratio=1.30 / aq=1:1.00
Default : Yes
Forced : No
Color range : Limited
Color primaries : BT.709
Transfer characteristics : BT.709
Matrix coefficients : BT.709

Audio #1
ID : 2
Format : TrueHD
Format profile : TrueHD+Atmos / TrueHD
Codec ID : A_TRUEHD
Duration : 2 h 14 min
Bit rate mode : Variable
Bit rate : 4 327 kb/s
Maximum bit rate : 7 134 kb/s
Channel(s) : Object Based / 8 channels
Channel positions : Object Based / Front: L C R, Side: L R, Back: L R, LFE
Sampling rate : / 48.0 kHz
Frame rate : 1 200.000 FPS (40 SPF)
Compression mode : Lossless
Stream size : 4.07 GiB (17%)
Title : Black.Panther.2018.1080p.3D.BluRay.Half-SBS.x264.TrueHD.7.1.Atmos-FGT
Language : English
Default : Yes
Forced : No

Audio #2
ID : 3
Format : AC-3
Format/Info : Audio Coding 3
Codec ID : A_AC3
Duration : 2 h 14 min
Bit rate mode : Constant
Bit rate : 640 kb/s
Channel(s) : 6 channels
Channel positions : Front: L C R, Side: L R, LFE
Sampling rate : 48.0 kHz
Frame rate : 31.250 FPS (1536 SPF)
Bit depth : 16 bits
Compression mode : Lossy
Stream size : 616 MiB (3%)
Title : Black.Panther.2018.1080p.3D.BluRay.Half-SBS.x264.TrueHD.7.1.Atmos-FGT
Language : English
Service kind : Complete Main
Default : No
Forced : No

Audio #3
ID : 4
Format : E-AC-3
Format/Info : Enhanced Audio Coding 3
Codec ID : A_EAC3
Duration : 2 h 14 min
Bit rate mode : Constant
Bit rate : 500 b/s
Channel(s) : 6 channels
Channel positions : Front: L C R, Side: L R, LFE
Sampling rate : 48.0 kHz
Frame rate : 187.500 FPS (256 SPF)
Compression mode : Lossy
Stream size : 862 MiB (4%)
Title : Black.Panther.2018.1080p.3D.BluRay.Half-SBS.x264.TrueHD.7.1.Atmos-FGT
Language : Italian
Service kind : Complete Main
Default : No
Forced : No

Audio #4
ID : 5
Format : DTS
Format/Info : Digital Theater Systems
Codec ID : A_DTS
Duration : 2 h 14 min
Bit rate mode : Constant
Bit rate : 1 509 kb/s
Channel(s) : 6 channels
Channel positions : Front: L C R, Side: L R, LFE
Sampling rate : 48.0 kHz
Frame rate : 93.750 FPS (512 SPF)
Bit depth : 24 bits
Compression mode : Lossy
Stream size : 1.42 GiB (6%)
Title : Black.Panther.2018.1080p.3D.BluRay.Half-SBS.x264.TrueHD.7.1.Atmos-FGT
Language : Spanish
Default : No
Forced : No

Audio #5
ID : 6
Format : AC-3
Format/Info : Audio Coding 3
Codec ID : A_AC3
Duration : 2 h 14 min
Bit rate mode : Constant
Bit rate : 640 kb/s
Channel(s) : 6 channels
Channel positions : Front: L C R, Side: L R, LFE
Sampling rate : 48.0 kHz
Frame rate : 31.250 FPS (1536 SPF)
Bit depth : 16 bits
Compression mode : Lossy
Stream size : 616 MiB (3%)
Title : Black.Panther.2018.1080p.3D.BluRay.Half-SBS.x264.TrueHD.7.1.Atmos-FGT
Language : Czech
Service kind : Complete Main
Default : No
Forced : No

Audio #6
ID : 7
Format : AC-3
Format/Info : Audio Coding 3
Codec ID : A_AC3
Duration : 2 h 14 min
Bit rate mode : Constant
Bit rate : 640 kb/s
Channel(s) : 6 channels
Channel positions : Front: L C R, Side: L R, LFE
Sampling rate : 48.0 kHz
Frame rate : 31.250 FPS (1536 SPF)
Bit depth : 16 bits
Compression mode : Lossy
Stream size : 616 MiB (3%)
Title : Black.Panther.2018.1080p.3D.BluRay.Half-SBS.x264.TrueHD.7.1.Atmos-FGT
Language : Polish
Service kind : Complete Main
Default : No
Forced : No

Audio #7
ID : 8
Format : AC-3
Format/Info : Audio Coding 3
Codec ID : A_AC3
Duration : 2 h 14 min
Bit rate mode : Constant
Bit rate : 640 kb/s
Channel(s) : 6 channels
Channel positions : Front: L C R, Side: L R, LFE
Sampling rate : 48.0 kHz
Frame rate : 31.250 FPS (1536 SPF)
Bit depth : 16 bits
Compression mode : Lossy
Stream size : 616 MiB (3%)
Title : Black.Panther.2018.1080p.3D.BluRay.Half-SBS.x264.TrueHD.7.1.Atmos-FGT
Language : Russian
Service kind : Complete Main
Default : No
Forced : No

Text #1
ID : 9
Format : PGS
Muxing mode : zlib
Codec ID : S_HDMV/PGS
Codec ID/Info : Picture based subtitle format used on BDs/HD-DVDs
Duration : 2 h 14 min
Bit rate : 43.9 kb/s
Count of elements : 3670
Stream size : 42.1 MiB (0%)
Title : English-PGS
Language : English
Default : Yes
Forced : No

Text #2
ID : 10
Format : PGS
Muxing mode : zlib
Codec ID : S_HDMV/PGS
Codec ID/Info : Picture based subtitle format used on BDs/HD-DVDs
Duration : 2 h 14 min
Bit rate : 36.9 kb/s
Count of elements : 2904
Stream size : 35.5 MiB (0%)
Title : Italian-PGS
Language : Italian
Default : No
Forced : No

Text #3
ID : 11
Format : PGS
Muxing mode : zlib
Codec ID : S_HDMV/PGS
Codec ID/Info : Picture based subtitle format used on BDs/HD-DVDs
Duration : 2 h 14 min
Bit rate : 35.2 kb/s
Count of elements : 2894
Stream size : 33.8 MiB (0%)
Title : Spanish-PGS
Language : Spanish
Default : No
Forced : No

Text #4
ID : 12
Format : PGS
Muxing mode : zlib
Codec ID : S_HDMV/PGS
Codec ID/Info : Picture based subtitle format used on BDs/HD-DVDs
Duration : 2 h 14 min
Bit rate : 32.3 kb/s
Count of elements : 2902
Stream size : 31.1 MiB (0%)
Title : Czech-PGS
Language : Czech
Default : No
Forced : No

Text #5
ID : 13
Format : PGS
Muxing mode : zlib
Codec ID : S_HDMV/PGS
Codec ID/Info : Picture based subtitle format used on BDs/HD-DVDs
Duration : 2 h 14 min
Bit rate : 31.5 kb/s
Count of elements : 2874
Stream size : 30.3 MiB (0%)
Title : Polish-PGS
Language : Polish
Default : No
Forced : No

Text #6
ID : 14
Format : PGS
Muxing mode : zlib
Codec ID : S_HDMV/PGS
Codec ID/Info : Picture based subtitle format used on BDs/HD-DVDs
Duration : 2 h 14 min
Bit rate : 34.3 kb/s
Count of elements : 2920
Stream size : 32.9 MiB (0%)
Title : Russian-PGS
Language : Russian
Default : No
Forced : No








Treść widoczna tylko dla użytkowników forum Files4You.org. Zaloguj się lub załóż darmowe konto aby otrzymać dostęp do niewidocznej treści.



 
Stare 26.05.2018, 15:23   #2
jiro
Uplinker
 
Awatar jiro
 
Domyślnie

Czarna Pantera / Black Panther (2018) 1080p.3D.BluRay.Half-OU.x264.TrueHD.7.1.Atmos-FGT | DUBBiNG i NAPiSY PL


Format : Matroska at 25.3 Mbps
Length : 23.8 GiB for 2h 14mn 34s 431ms

Video #0 : AVC at 18.6 Mbps
Aspect : 1920 x 1080 (1.778) at 23.976 fps

Audio #0 : TrueHD at 4376kbps
Infos : 8 channels, 48.0 KHz
Language : en

Audio #1 : AC-3 at 640 Kbps
Infos : 6 channels, 48.0 KHz
Language : en

Audio #2 : E-AC-3 at 384 Kbps
Infos : 6 channels, 48.0 KHz
Language : it

Audio #3 : DTS at 1 510 Kbps
Infos : 6 channels, 48.0 KHz
Language : es

Audio #4 : AC-3 at 640 Kbps
Infos : 6 channels, 48.0 KHz
Language : cs

Audio #5 : AC-3 at 640 Kbps
Infos : 6 channels, 48.0 KHz
Language : pl

Audio #6 : AC-3 at 640 Kbps
Infos : 6 channels, 48.0 KHz
Language : ru

Text #0 : PGS
Language : en

Text #1 : PGS
Language : it

Text #2 : PGS
Language : es

Text #3 : PGS
Language : cs

Text #4 : PGS
Language : pl



Treść widoczna tylko dla użytkowników forum Files4You.org. Zaloguj się lub załóż darmowe konto aby otrzymać dostęp do niewidocznej treści.



jiro jest nieaktywny  
Stare 27.05.2018, 10:25   #3
picasciu
Uplinker
 
Awatar picasciu
 
Domyślnie

Czarna Pantera 3D / Black Panther 3D (2018) PLDUB.1080p.Half-OU.BluRay.x264-P2P/ Dubbing PL



Dane Uploadu:

Format : Matroska at 10,2 Mb/s
Length : 9,60 GB for 2h 14 min. 33s 120ms

Video #0 : AVC at 9.555 Kb/s
Aspect : 1920 x 1012 (1.897) at 23.976 fps

Audio #0 : AC-3 at 640 Kb/s
Infos : 6 kanałów, 48,0 KHz
Opis Uploadu:

wielkość całości: 9,60 GB
rodzaj kompresji: rar
zawartość uploadu: .mkv
wersja językowa: Dubbing PL, Napisy PL, PL (3D wmuxowane)
brak danych naprawczych
hasło: brak
DOWNLOAD:



Treść widoczna tylko dla użytkowników forum Files4You.org. Zaloguj się lub załóż darmowe konto aby otrzymać dostęp do niewidocznej treści.





Treść widoczna tylko dla użytkowników forum Files4You.org. Zaloguj się lub załóż darmowe konto aby otrzymać dostęp do niewidocznej treści.





Treść widoczna tylko dla użytkowników forum Files4You.org. Zaloguj się lub załóż darmowe konto aby otrzymać dostęp do niewidocznej treści.





Treść widoczna tylko dla użytkowników forum Files4You.org. Zaloguj się lub załóż darmowe konto aby otrzymać dostęp do niewidocznej treści.





Treść widoczna tylko dla użytkowników forum Files4You.org. Zaloguj się lub załóż darmowe konto aby otrzymać dostęp do niewidocznej treści.





Treść widoczna tylko dla użytkowników forum Files4You.org. Zaloguj się lub załóż darmowe konto aby otrzymać dostęp do niewidocznej treści.





Treść widoczna tylko dla użytkowników forum Files4You.org. Zaloguj się lub załóż darmowe konto aby otrzymać dostęp do niewidocznej treści.



picasciu jest nieaktywny  
Stare 3.06.2018, 11:52   #4
*Motylek*
Gość
 
Awatar *Motylek*
 
Domyślnie

Czarna Pantera / Black Panther (2018) 1080p.3D.BluRay.Half-OU.x264.AC3 | DUBBiNG i NAPiSY PL


Informacje o pliku video:

Format : Matroska at 9 656 Kbps
Length : 9.08 GiB for 2 h 14 min 33 s 190 ms

Video #0 : AVC at 9 000 Kbps
Aspect : 1920 x 1080 (1.778) at 23.976 fps

Audio #0 : AC-3 at 640 Kbps
Infos : 6 channels, 48.0 kHz
Language : pl

Text #0 : PGS
Language : pl

Text #1 : PGS
Language : pl

Text #2 : PGS
Language : pl

Text #3 : PGS
Language : pl

Text #4 : UTF-8






Treść widoczna tylko dla użytkowników forum Files4You.org. Zaloguj się lub załóż darmowe konto aby otrzymać dostęp do niewidocznej treści.



 
Stare 14.10.2018, 20:00   #5
picasciu
Uplinker
 
Awatar picasciu
 
Domyślnie

Czarna Pantera 3D / Black Panther 3D (2018) MULTi.1080p.HOU.BluRay.x264-KLiO/ Lektor PL / Dubbing PL / Napisy PL


Dane Uploadu:

Format : Matroska at 15,4 Mb/s
Length : 14,4 GB for 2h 14 min. 33s 248ms

Video #0 : AVC at 13,0 Mb/s
Aspect : 1920 x 1080 (1.778) at 23.976 fps

Audio #0 : AC-3 at 192 Kb/s
Infos : 2 kanały, 48,0 KHz

Audio #1 : AC-3 at 640 Kb/s
Infos : 6 kanałów, 48,0 KHz

Audio #2 : DTS at 1509 Kb/s
Infos : 6 kanałów, 48,0 KHz
Opis Uploadu:

wielkość całości: 14,4 GB
rodzaj kompresji: rar
zawartość uploadu: .mkv
wersja językowa: Lektor PL, Dubbing PL, Eng + Napisy PL (2D i 3D wmuxowane), Napisy Eng (3D wmuxowane)
brak danych naprawczych
hasło: brak
DOWNLOAD:



Treść widoczna tylko dla użytkowników forum Files4You.org. Zaloguj się lub załóż darmowe konto aby otrzymać dostęp do niewidocznej treści.





Treść widoczna tylko dla użytkowników forum Files4You.org. Zaloguj się lub załóż darmowe konto aby otrzymać dostęp do niewidocznej treści.





Treść widoczna tylko dla użytkowników forum Files4You.org. Zaloguj się lub załóż darmowe konto aby otrzymać dostęp do niewidocznej treści.





Treść widoczna tylko dla użytkowników forum Files4You.org. Zaloguj się lub załóż darmowe konto aby otrzymać dostęp do niewidocznej treści.





Treść widoczna tylko dla użytkowników forum Files4You.org. Zaloguj się lub załóż darmowe konto aby otrzymać dostęp do niewidocznej treści.



picasciu jest nieaktywny  
Stare 18.05.2020, 15:43   #6
Axel Rudi
Zakaz pisania
 
Awatar Axel Rudi
 
Domyślnie

Czarna Pantera / Black Panther (2018) 1080p.3D.BRRip.H-OU.x264.AC3.DTS.HD.7.1.Atmos-alE13 / Dubbing PL



*Informacje o pliku video: *

Format * * * * * *: Matroska at 8 414 Kbps
Length * * * * * *: 7.91 GiB for 2 h 14 min 31 s 939 ms

Video #0 * * * * *: AVC at 7 508 Kbps
Aspect * * * * * *: 1920 x 1080 (1.778) at 23.976 fps

Audio #0 * * * * *: AC-3 at 448 Kbps
Infos * * * * * * : 6 channels, 48.0 kHz
Language * * * * *: en

Audio #1 * * * * *: AC-3 at 448 Kbps
Infos * * * * * * : 6 channels, 48.0 kHz
Language * * * * *: pl

Text #0 * * * * * : PGS
Language * * * * *: pl






Treść widoczna tylko dla użytkowników forum Files4You.org. Zaloguj się lub załóż darmowe konto aby otrzymać dostęp do niewidocznej treści.



Axel Rudi jest nieaktywny  
Słowa kluczowe związane z tematem Czarna Pantera / Black Panther (2018):
Czarna Pantera / Black Panther (2018) bez płacenia, Czarna Pantera / Black Panther (2018) no limits, Czarna Pantera / Black Panther (2018) bez premium, Czarna Pantera / Black Panther (2018) bez limitów, Czarna Pantera / Black Panther (2018) bez konta premium, Czarna Pantera / Black Panther (2018) za darmo, Czarna Pantera / Black Panther (2018) do pobrania, Czarna Pantera / Black Panther (2018) download, Czarna Pantera / Black Panther (2018) do ściągnięcia, Czarna Pantera / Black Panther (2018) free, Czarna Pantera / Black Panther (2018) files4you, Czarna Pantera / Black Panther (2018) exsite, Czarna Pantera / Black Panther (2018) zajefajna, Czarna Pantera / Black Panther (2018) peb, Czarna Pantera / Black Panther (2018) chomikuj, Czarna Pantera / Black Panther (2018) precyl, Czarna Pantera / Black Panther (2018) darkwarez, Czarna Pantera / Black Panther (2018) rar, Czarna Pantera / Black Panther (2018) filestube, Czarna Pantera / Black Panther (2018) elitewarez, Czarna Pantera / Black Panther (2018) catshare, Czarna Pantera / Black Panther (2018) rapidu, Czarna Pantera / Black Panther (2018) fileshark, Czarna Pantera / Black Panther (2018) lunaticfiles, Czarna Pantera / Black Panther (2018) uploadable, Czarna Pantera / Black Panther (2018) rapidgator, Czarna Pantera / Black Panther (2018) uploaded, Czarna Pantera / Black Panther (2018) turbobit, Czarna Pantera / Black Panther (2018) warez, Czarna Pantera / Black Panther (2018) portal, Czarna Pantera / Black Panther (2018) warez-bb
Przy okazji sprawdź poniższe tematy:

Podobne wątki
Wątek Autor wątku Forum Odpowiedzi Ostatni post / autor
Czarna Pantera / Black Panther (2018) rafi11a Blu-Ray, DVD-R & High Definition 2 13.05.2021 06:11
Czarna Pantera / Black Panther (2018) rafi11a Filmy MQ/LQ 2 27.03.2021 01:07
Czarna Pantera / Black Panther (2018) *Motylek* 4K/UHD 9 26.03.2021 23:52

Narzędzia wątku




Nabór do ekipy!

Rapids24.pl


Files4You.org - Kontakt - Archiwum - Warunki korzystania z serwisu - Grupy - Na górę

Powered by vBulletin®
Files4You.org 2005-2020
Czasy w strefie GMT +1. Teraz jest 00:26.