Register
Zapomniales hasla?
Wróć   Files4you.org - Forum wielotematyczne > Download > FILMY > Filmy 3D > Abraham Lincoln: Łowca wampirów 3D / Abraham Lincoln: Vampire Hunter 3D (2012)



Stare 23.04.2016, 15:52   #1
*Motylek*
Gość
 
Awatar *Motylek*
 
Domyślnie Abraham Lincoln: Łowca wampirów 3D / Abraham Lincoln: Vampire Hunter 3D (2012)

Abraham Lincoln: Łowca wampirów 3D / Abraham Lincoln: Vampire Hunter 3D (2012) 1080p.3D.Half-OU.AC3.BDRip.x264-gix | Lektor PL



reżyseria: Timur Bekmambetov
scenariusz: Seth Grahame-Smith
gatunek: Fantasy, Horror, Akcja
produkcja: USA
premiera: 24 sierpnia 2012 (Polska) 18 czerwca 2012 (świat)

Dwaj wizjonerzy kina, Tim Burton i Timur Bekmambetov ("Wanted - Ścigani") zrealizowali emocjonujący thriller osnuty na bestsellerze Setha Grahame-Smitha. Benjamin Walker tworzy zabójczą kreację jako Abraham Lincoln, który ryzykuje swoją prezydenturę, rodzinę i życie, by uchronić Amerykę przed żądnymi krwi wampirami. Pod przywództwem diabolicznego Adama (Rufus Sewell), bezlitosne potwory pragną stworzyć w Stanach Zjednoczonych własny naród! Wypowiedziawszy wojnę odrażającym, nieśmiertelnym istotom, Lincoln musi polegać na współpracownikach. Nie wiadomo jednak komu może zaufać.
Niesamowite, mrożące krew w żyłach efekty specjalne, niespodziewane zwroty akcji i nieustanne napięcie gwarantują znakomitą rozrywkę wszystkim miłośnikom tego gatunku filmowego.



Abraham Lincoln: Łowca wampirów 3D / Abraham Lincoln: Vampire Hunter 3D (2012) 1080p.3D.Half-OU.AC3.BDRip.x264-gix | Lektor PL

ormat : Matroska
Format version : Version 2
File size : 3.63 GiB
Duration : 1h 44mn
Overall bit rate : 4 951 Kbps
Movie name : Abraham Lincoln: Łowca wampirów 3D (2012) Rip by gixerk9 [AT-Team]
Writing application : mkvmerge v5.7.0 ('The Whirlwind') built on Jul 8 2012 20:08:51
Writing library : libebml v1.2.3 + libmatroska v1.3.0

Video
ID : 1
Format : AVC
Format/Info : Advanced Video Codec
Format profile : [email protected]
Format settings, CABAC : Yes
Format settings, ReFrames : 2 frames
Codec ID : V_MPEG4/ISO/AVC
Duration : 1h 44mn
Bit rate : 4 500 Kbps
Width : 1 920 pixels
Height : 1 080 pixels
Display aspect ratio : 16:9
Frame rate mode : Constant
Frame rate : 23.976 fps
Color space : YUV
Chroma subsampling : 4:2:0
Bit depth : 8 bits
Scan type : Progressive
Bits/(Pixel*Frame) : 0.091
Stream size : 3.23 GiB (89%)
Writing library : x264 core 142
Default : Yes
Forced : No
Color primaries : BT.709
Transfer characteristics : BT.709
Matrix coefficients : BT.709
Color range : Limited

Audio
ID : 2
Format : AC-3
Format/Info : Audio Coding 3
Mode extension : CM (complete main)
Format settings, Endianness : Big
Codec ID : A_AC3
Duration : 1h 44mn
Bit rate mode : Constant
Bit rate : 448 Kbps
Channel(s) : 6 channels
Channel positions : Front: L C R, Side: L R, LFE
Sampling rate : 48.0 KHz
Bit depth : 16 bits
Compression mode : Lossy
Stream size : 336 MiB (9%)
Title : Lektor PL AC3 5.1
Language : Polish
Default : Yes
Forced : No



Treść widoczna tylko dla użytkowników forum Files4You.org. Zaloguj się lub załóż darmowe konto aby otrzymać dostęp do niewidocznej treści.


[
 
Słowa kluczowe związane z tematem Abraham Lincoln: Łowca wampirów 3D / Abraham Lincoln: Vampire Hunter 3D (2012):
Abraham Lincoln: Łowca wampirów 3D / Abraham Lincoln: Vampire Hunter 3D (2012) bez płacenia, Abraham Lincoln: Łowca wampirów 3D / Abraham Lincoln: Vampire Hunter 3D (2012) no limits, Abraham Lincoln: Łowca wampirów 3D / Abraham Lincoln: Vampire Hunter 3D (2012) bez premium, Abraham Lincoln: Łowca wampirów 3D / Abraham Lincoln: Vampire Hunter 3D (2012) bez limitów, Abraham Lincoln: Łowca wampirów 3D / Abraham Lincoln: Vampire Hunter 3D (2012) bez konta premium, Abraham Lincoln: Łowca wampirów 3D / Abraham Lincoln: Vampire Hunter 3D (2012) za darmo, Abraham Lincoln: Łowca wampirów 3D / Abraham Lincoln: Vampire Hunter 3D (2012) do pobrania, Abraham Lincoln: Łowca wampirów 3D / Abraham Lincoln: Vampire Hunter 3D (2012) download, Abraham Lincoln: Łowca wampirów 3D / Abraham Lincoln: Vampire Hunter 3D (2012) do ściągnięcia, Abraham Lincoln: Łowca wampirów 3D / Abraham Lincoln: Vampire Hunter 3D (2012) free, Abraham Lincoln: Łowca wampirów 3D / Abraham Lincoln: Vampire Hunter 3D (2012) files4you, Abraham Lincoln: Łowca wampirów 3D / Abraham Lincoln: Vampire Hunter 3D (2012) exsite, Abraham Lincoln: Łowca wampirów 3D / Abraham Lincoln: Vampire Hunter 3D (2012) zajefajna, Abraham Lincoln: Łowca wampirów 3D / Abraham Lincoln: Vampire Hunter 3D (2012) peb, Abraham Lincoln: Łowca wampirów 3D / Abraham Lincoln: Vampire Hunter 3D (2012) chomikuj, Abraham Lincoln: Łowca wampirów 3D / Abraham Lincoln: Vampire Hunter 3D (2012) precyl, Abraham Lincoln: Łowca wampirów 3D / Abraham Lincoln: Vampire Hunter 3D (2012) darkwarez, Abraham Lincoln: Łowca wampirów 3D / Abraham Lincoln: Vampire Hunter 3D (2012) rar, Abraham Lincoln: Łowca wampirów 3D / Abraham Lincoln: Vampire Hunter 3D (2012) filestube, Abraham Lincoln: Łowca wampirów 3D / Abraham Lincoln: Vampire Hunter 3D (2012) elitewarez, Abraham Lincoln: Łowca wampirów 3D / Abraham Lincoln: Vampire Hunter 3D (2012) catshare, Abraham Lincoln: Łowca wampirów 3D / Abraham Lincoln: Vampire Hunter 3D (2012) rapidu, Abraham Lincoln: Łowca wampirów 3D / Abraham Lincoln: Vampire Hunter 3D (2012) fileshark, Abraham Lincoln: Łowca wampirów 3D / Abraham Lincoln: Vampire Hunter 3D (2012) lunaticfiles, Abraham Lincoln: Łowca wampirów 3D / Abraham Lincoln: Vampire Hunter 3D (2012) uploadable, Abraham Lincoln: Łowca wampirów 3D / Abraham Lincoln: Vampire Hunter 3D (2012) rapidgator, Abraham Lincoln: Łowca wampirów 3D / Abraham Lincoln: Vampire Hunter 3D (2012) uploaded, Abraham Lincoln: Łowca wampirów 3D / Abraham Lincoln: Vampire Hunter 3D (2012) turbobit, Abraham Lincoln: Łowca wampirów 3D / Abraham Lincoln: Vampire Hunter 3D (2012) warez, Abraham Lincoln: Łowca wampirów 3D / Abraham Lincoln: Vampire Hunter 3D (2012) portal, Abraham Lincoln: Łowca wampirów 3D / Abraham Lincoln: Vampire Hunter 3D (2012) warez-bb
Przy okazji sprawdź poniższe tematy:

Narzędzia wątku




Nabór do ekipy!



Files4You.org - Kontakt - Archiwum - Warunki korzystania z serwisu - Grupy - Na górę

Powered by vBulletin®
Files4You.org 2005-2023
Czasy w strefie GMT +1. Teraz jest 11:40.