Register
Zapomniales hasla?
Wróć   Files4you.org - Forum wielotematyczne > Download > FILMY > Filmy 3D > Hobbit: Bitwa Pięciu Armii / The Hobbit: The Battle of the Five Armies (2014)



Stare 8.03.2015, 17:53   #1
*Motylek*
Gość
 
Awatar *Motylek*
 
Domyślnie Hobbit: Bitwa Pięciu Armii / The Hobbit: The Battle of the Five Armies (2014)

Hobbit: Bitwa Pięciu Armii / The Hobbit: The Battle of the Five Armies (2014) DISC1&DISC2.1080p.3D.BluRay.Half-OU.x264.DTS-HD.MA.7.1-RARBG | Dubbing PL



gatunek: Fantasy, Przygodowy
produkcja: Nowa Zelandia, USA
premiera: 25 grudnia 2014 (Polska) 1 grudnia 2014 (świat)
reżyseria: Peter Jackson
scenariusz: Fran Walsh, Philippa Boyens, Guillermo del Toro, Peter Jackson

Filmowa adaptacja książki J.R.R. Tolkiena, będącej wstępem do słynnego "Władcy Pierścieni", to opowieść pełna niesamowitych wydarzeń i magicznych postaci. Przedstawia odwieczną walkę dobra ze złem. Po wielkim sukcesie pierwszych dwóch części trylogii – "Hobbit: Niezwykła podróż" oraz "Hobbit: Pustkowie Smauga", nadszedł czas na film zamykający niezwykłe dzieło Petera Jacksona: "Hobbit: Bitwa Pięciu Armii". Drużyna dowodzona przez Thorina Dębową Tarczę dotarła do Samotnej Góry, której skarbu strzeże potężny Smaug. Czy Bilbo i jego towarzysze pokonają smoka i odzyskają legendarny Erebor?




Hobbit: Bitwa Pięciu Armii / The Hobbit: The Battle of the Five Armies (2014) DISC1& DISC2.1080p.3D.BluRay.AVC.DTS-HD.MA.7.1-RARBG | DUBBING i NAPiSY PL


Video
ID : 1
Format : AVC
Format/Info : Advanced Video Codec
Format profile : [email protected]
Format settings, CABAC : Yes
Format settings, ReFrames : 2 frames
Codec ID : V_MPEG4/ISO/AVC
Duration : 1h 22mn
Nominal bit rate : 16.0 Mbps
Width : 1 920 pixels
Height : 1 080 pixels
Display aspect ratio : 16:9
Frame rate mode : Constant
Frame rate : 23.976 fps
Color space : YUV
Chroma subsampling : 4:2:0
Bit depth : 8 bits
Scan type : Progressive
Bits/(Pixel*Frame) : 0.322
Title : The.Hobbit.The.Battle.of.the.Five.Armies.2014.DISC 1.1080p.3D.BluRay.Half-OU.x264.DTS-HD.MA.7.1-RARBG
Writing library : x264 core 142
Default : Yes
Forced : No
Color primaries : BT.709
Transfer characteristics : BT.709
Matrix coefficients : BT.709
Color range : Limited

Audio #1
ID : 2
Format : DTS
Format/Info : Digital Theater Systems
Format profile : MA / Core
Mode : 16
Format settings, Endianness : Big
Codec ID : A_DTS
Duration : 1h 22mn
Bit rate mode : Variable
Bit rate : Unknown / 1 509 Kbps
Channel(s) : 8 channels / 6 channels
Channel positions : Front: L C R, Side: L R, Back: L R, LFE / Front: L C R, Side: L R, LFE
Sampling rate : 48.0 KHz
Bit depth : 24 bits
Compression mode : Lossless / Lossy
Title : The.Hobbit.The.Battle.of.the.Five.Armies.2014.DISC 1.1080p.3D.BluRay.Half-OU.x264.DTS-HD.MA.7.1-RARBG
Language : English
Default : Yes
Forced : No

Audio #2
ID : 3
Format : DTS
Format/Info : Digital Theater Systems
Mode : 16
Format settings, Endianness : Big
Codec ID : A_DTS
Duration : 1h 22mn
Bit rate mode : Constant
Bit rate : 1 509 Kbps
Channel(s) : 6 channels
Channel positions : Front: L C R, Side: L R, LFE
Sampling rate : 48.0 KHz
Bit depth : 24 bits
Compression mode : Lossy
Stream size : 888 MiB (6%)
Title : The.Hobbit.The.Battle.of.the.Five.Armies.2014.DISC 1.1080p.3D.BluRay.Half-OU.x264.DTS-HD.MA.7.1-RARBG
Language : English
Default : No
Forced : No

Audio #7
ID : 8
Format : AC-3
Format/Info : Audio Coding 3
Mode extension : CM (complete main)
Format settings, Endianness : Big
Codec ID : A_AC3
Duration : 1h 22mn
Bit rate mode : Constant
Bit rate : 448 Kbps
Channel(s) : 6 channels
Channel positions : Front: L C R, Side: L R, LFE
Sampling rate : 48.0 KHz
Bit depth : 16 bits
Compression mode : Lossy
Stream size : 264 MiB (2%)
Title : The.Hobbit.The.Battle.of.the.Five.Armies.2014.DISC 1.1080p.3D.BluRay.Half-OU.x264.DTS-HD.MA.7.1-RARBG
Language : Polish
Default : No
Forced : No

Text #1
ID : 9
Format : PGS
Muxing mode : zlib
Codec ID : S_HDMV/PGS
Codec ID/Info : The same subtitle format used on BDs/HD-DVDs
Language : English
Default : No
Forced : No

Text #2
ID : 10
Format : PGS
Muxing mode : zlib
Codec ID : S_HDMV/PGS
Codec ID/Info : The same subtitle format used on BDs/HD-DVDs
Language : French
Default : No
Forced : No

Text #7
ID : 15
Format : PGS
Muxing mode : zlib
Codec ID : S_HDMV/PGS
Codec ID/Info : The same subtitle format used on BDs/HD-DVDs
Language : Polish
Default : No
Forced : No

Text #8
ID : 16
Format : PGS
Muxing mode : zlib
Codec ID : S_HDMV/PGS
Codec ID/Info : The same subtitle format used on BDs/HD-DVDs
Language : Romanian
Default : No
Forced : No

Text #12
ID : 20
Format : PGS
Muxing mode : zlib
Codec ID : S_HDMV/PGS
Codec ID/Info : The same subtitle format used on BDs/HD-DVDs
Language : Polish
Default : No
Forced : No






Treść widoczna tylko dla użytkowników forum Files4You.org. Zaloguj się lub załóż darmowe konto aby otrzymać dostęp do niewidocznej treści.




DISC 2

Hobbit: Bitwa Pięciu Armii / The Hobbit: The Battle of the Five Armies (2014) DISC1& DISC2.1080p.3D.BluRay.AVC.DTS-HD.MA.7.1-RARBG | DUBBING i NAPiSY PL

Video
ID : 1
Format : AVC
Format/Info : Advanced Video Codec
Format profile : [email protected]
Format settings, CABAC : Yes
Format settings, ReFrames : 2 frames
Codec ID : V_MPEG4/ISO/AVC
Duration : 1h 2mn
Nominal bit rate : 16.0 Mbps
Width : 1 920 pixels
Height : 1 080 pixels
Display aspect ratio : 16:9
Frame rate mode : Constant
Frame rate : 23.976 fps
Color space : YUV
Chroma subsampling : 4:2:0
Bit depth : 8 bits
Scan type : Progressive
Bits/(Pixel*Frame) : 0.322
Title : The.Hobbit.The.Battle.of.the.Five.Armies.2014.DISC 2.1080p.3D.BluRay.Half-OU.x264.DTS-HD.MA.7.1-RARBG

Default : Yes
Forced : No
Color primaries : BT.709
Transfer characteristics : BT.709
Matrix coefficients : BT.709
Color range : Limited

Audio #1
ID : 2
Format : DTS
Format/Info : Digital Theater Systems
Format profile : MA / Core
Mode : 16
Format settings, Endianness : Big
Codec ID : A_DTS
Duration : 1h 2mn
Bit rate mode : Variable
Bit rate : Unknown / 1 509 Kbps
Channel(s) : 8 channels / 6 channels
Channel positions : Front: L C R, Side: L R, Back: L R, LFE / Front: L C R, Side: L R, LFE
Sampling rate : 48.0 KHz
Bit depth : 24 bits
Compression mode : Lossless / Lossy
Title : The.Hobbit.The.Battle.of.the.Five.Armies.2014.DISC 2.1080p.3D.BluRay.Half-OU.x264.DTS-HD.MA.7.1-RARBG
Language : English
Default : Yes
Forced : No

Audio #2
ID : 3
Format : DTS
Format/Info : Digital Theater Systems
Mode : 16
Format settings, Endianness : Big
Codec ID : A_DTS
Duration : 1h 2mn
Bit rate mode : Constant
Bit rate : 1 509 Kbps
Channel(s) : 6 channels
Channel positions : Front: L C R, Side: L R, LFE
Sampling rate : 48.0 KHz
Bit depth : 24 bits
Compression mode : Lossy
Stream size : 672 MiB (6%)
Title : The.Hobbit.The.Battle.of.the.Five.Armies.2014.DISC 2.1080p.3D.BluRay.Half-OU.x264.DTS-HD.MA.7.1-RARBG
Language : English
Default : No
Forced : No


Audio #7
ID : 8
Format : AC-3
Format/Info : Audio Coding 3
Mode extension : CM (complete main)
Format settings, Endianness : Big
Codec ID : A_AC3
Duration : 1h 2mn
Bit rate mode : Constant
Bit rate : 448 Kbps
Channel(s) : 6 channels
Channel positions : Front: L C R, Side: L R, LFE
Sampling rate : 48.0 KHz
Bit depth : 16 bits
Compression mode : Lossy
Stream size : 199 MiB (2%)
Title : The.Hobbit.The.Battle.of.the.Five.Armies.2014.DISC 2.1080p.3D.BluRay.Half-OU.x264.DTS-HD.MA.7.1-RARBG
Language : Polish
Default : No
Forced : No

Text #1
ID : 9
Format : PGS
Muxing mode : zlib
Codec ID : S_HDMV/PGS
Codec ID/Info : The same subtitle format used on BDs/HD-DVDs
Language : English
Default : No
Forced : No

Text #12
ID : 20
Format : PGS
Muxing mode : zlib
Codec ID : S_HDMV/PGS
Codec ID/Info : The same subtitle format used on BDs/HD-DVDs
Language : Polish
Default : No
Forced : No





Treść widoczna tylko dla użytkowników forum Files4You.org. Zaloguj się lub załóż darmowe konto aby otrzymać dostęp do niewidocznej treści.



 
Stare 8.03.2015, 20:44   #2
picasciu
Uplinker
 
Awatar picasciu
 
Domyślnie

Hobbit: Bitwa Pięciu Armii / The Hobbit: The Battle of the Five Armies (2014) PLDUB.1080p.3D.BluRay.Half-SBS.AC3.x264-LLO / Dubbing PL


Screen:






Dane Uploadu:

The.Hobbit.The.Battle.of.the.Five.Armies.2014.PLDU B.1080p.3D.BluRay.Half-SBS.AC3.x264-LLO.mkv
Size: 15568214298 bytes (14,50 GiB), duration: 02:24:33, avg.bitrate: 14360 kb/s
Audio: ac3, 48000 Hz, 6 channels, s16 (pol)
Video: h264, yuv420p, 1920x1080, 24,00 fps(r)
step: 1530 s; # tiles: 1x4, tile size: 1022x574; total size: 1024x2317
0,80 s, 5,00 shots/s;
Opis Uploadu:

wielkość całości: 15,2 GB
rodzaj kompresji: rar
zawartość uploadu: .mkv
wersja językowa: Dubbing PL
dane naprawcze: 5%
hasło: brak
DOWNLOAD:



Treść widoczna tylko dla użytkowników forum Files4You.org. Zaloguj się lub załóż darmowe konto aby otrzymać dostęp do niewidocznej treści.






Treść widoczna tylko dla użytkowników forum Files4You.org. Zaloguj się lub załóż darmowe konto aby otrzymać dostęp do niewidocznej treści.






Treść widoczna tylko dla użytkowników forum Files4You.org. Zaloguj się lub załóż darmowe konto aby otrzymać dostęp do niewidocznej treści.






Treść widoczna tylko dla użytkowników forum Files4You.org. Zaloguj się lub załóż darmowe konto aby otrzymać dostęp do niewidocznej treści.






Treść widoczna tylko dla użytkowników forum Files4You.org. Zaloguj się lub załóż darmowe konto aby otrzymać dostęp do niewidocznej treści.



picasciu jest nieaktywny  
Stare 8.03.2015, 21:04   #3
*Motylek*
Gość
 
Awatar *Motylek*
 
Domyślnie

Hobbit: Bitwa Pięciu Armii 3D / The Hobbit: The Battle of the Five Armies (2014) mini-HD.1080p.Half.Over-Under.AC3.BluRay.x264-SONDA |Dubbing PL

General
Format : Matroska
Format version : Version 2
File size : 4.00 GiB
Duration : 2h 24mn
Overall bit rate : 3 966 Kbps
Movie name : The.Hobbit.The.Battle.of.the.Five.Armies.3D.2014.m iniHD.1080p.Bluray3D Rip by Sonda [AT-Team]
Encoded date : UTC 2015-03-08 15:07:04
Writing application : mkvmerge v5.7.0 ('The Whirlwind') built on Jul 8 2012 20:08:51
Writing library : libebml v1.2.3 + libmatroska v1.3.0

Video
ID : 1
Format : AVC
Format/Info : Advanced Video Codec
Format profile : [email protected]
Format settings, CABAC : Yes
Format settings, ReFrames : 2 frames
Codec ID : V_MPEG4/ISO/AVC
Duration : 2h 24mn
Bit rate : 3 440 Kbps
Width : 1 920 pixels
Height : 1 080 pixels
Display aspect ratio : 2.40:1
Frame rate mode : Constant
Frame rate : 23.976 fps
Color space : YUV
Chroma subsampling : 4:2:0
Bit depth : 8 bits
Scan type : Progressive
Bits/(Pixel*Frame) : 0.069
Stream size : 3.47 GiB (87%)
Title : Rip by Sonda encoding 2pass
Writing library : x264 core
Default : Yes
Forced : No
Color primaries : BT.709
Transfer characteristics : BT.709
Matrix coefficients : BT.709
Color range : Limited

Audio
ID : 2
Format : AC-3
Format/Info : Audio Coding 3
Mode extension : CM (complete main)
Format settings, Endianness : Big
Codec ID : A_AC3
Duration : 2h 24mn
Bit rate mode : Constant
Bit rate : 448 Kbps
Channel(s) : 6 channels
Channel positions : Front: L C R, Side: L R, LFE
Sampling rate : 48.0 KHz
Bit depth : 16 bits
Compression mode : Lossy
Stream size : 463 MiB (11%)
Title : AC3 5.1 Dubbing PL
Language : Polish
Default : Yes
Forced : No


Source:
A/V-The.Hobbit.The.Battle.of.the.Five.Armies.2014.1080 p.3D.BluRay.AVC.DTS-HD.MA.7.1





Treść widoczna tylko dla użytkowników forum Files4You.org. Zaloguj się lub załóż darmowe konto aby otrzymać dostęp do niewidocznej treści.



 
Stare 11.03.2015, 09:33   #4
azorrr
Uplinker
 
Awatar azorrr
 
Domyślnie

The.Hobbit.The.Battle.of.the.Five.Armies.2014.DISC 1-2.1080p.3D.BluRay.Half-OU.x264.DTS-HD.MA.7.1.AC3/DUBBING PL







Treść widoczna tylko dla użytkowników forum Files4You.org. Zaloguj się lub załóż darmowe konto aby otrzymać dostęp do niewidocznej treści.






Treść widoczna tylko dla użytkowników forum Files4You.org. Zaloguj się lub załóż darmowe konto aby otrzymać dostęp do niewidocznej treści.






Treść widoczna tylko dla użytkowników forum Files4You.org. Zaloguj się lub załóż darmowe konto aby otrzymać dostęp do niewidocznej treści.






Treść widoczna tylko dla użytkowników forum Files4You.org. Zaloguj się lub załóż darmowe konto aby otrzymać dostęp do niewidocznej treści.






Treść widoczna tylko dla użytkowników forum Files4You.org. Zaloguj się lub załóż darmowe konto aby otrzymać dostęp do niewidocznej treści.






Treść widoczna tylko dla użytkowników forum Files4You.org. Zaloguj się lub załóż darmowe konto aby otrzymać dostęp do niewidocznej treści.



azorrr jest nieaktywny  
Stare 12.03.2015, 13:05   #6
*Motylek*
Gość
 
Awatar *Motylek*
 
Domyślnie

Hobbit: Bitwa Pięciu Armii 3D / The Hobbit: The Battle of the Five Armies (2014) mini-HD.1080p.3D.Half.Over-Under.AC3.BluRay.x264-LEON 345 |Dubbing PL

UWAGA!!!!!NAPISY PL do kwestii mówionych w językach elfów i orków
na stałe wtopione w obraz !!!!!!!!!!!!
---------------------------------------------------------------------------
Ponieważ film na wydaniu Bluray 3D został podzielony
na dwie płyty te kopie miniHD również macie na 2-óch dyskach

Dysk1 - czas 01:22:14 waga 3.98 GB
Dysk2 - czas 01:02:10 waga 3.04 GB


General:Hobbit.Bitwa.Pieciu.Armii.2014.PL.3D.miniH D(Leon 345)Disc1.mkv

Format : Matroska
Format version : Version 4 / Version 2
File size : 3.99 GiB
Duration : 1h 22mn
Overall bit rate : 6 945 Kbps
Movie name : Disc1.Title100.Bluray3DRip by Leon 345
Encoded date : UTC 2015-03-10 11:38:35
Writing application : mkvmerge v7.6.0 ('Garden of Dreams') 64bit built on Feb 8 2015 13:04:34
Writing library : libebml v1.3.1 + libmatroska v1.4.2

Video
ID : 1
Format : AVC
Format/Info : Advanced Video Codec
Format profile : [email protected]
Format settings, CABAC : Yes
Format settings, ReFrames : 2 frames
Codec ID : V_MPEG4/ISO/AVC
Duration : 1h 22mn
Bit rate : 6 422 Kbps
Width : 1 920 pixels
Height : 1 080 pixels
Display aspect ratio : 16:9 (OAR 2.39:1)
Frame rate mode : Constant
Frame rate : 23.976 fps
Color space : YUV
Chroma subsampling : 4:2:0
Bit depth : 8 bits
Scan type : Progressive
Bits/(Pixel*Frame) : 0.130
Stream size : 3.69 GiB (92%)
Title : Rip by Leon 345
Writing library : x264 core
Default : Yes
Forced : No
Color primaries : BT.709
Transfer characteristics : BT.709
Matrix coefficients : BT.709

Audio
ID : 2
Format : AC-3
Format/Info : Audio Coding 3
Mode extension : CM (complete main)
Format settings, Endianness : Big
Codec ID : A_AC3
Duration : 1h 22mn
Bit rate mode : Constant
Bit rate : 384 Kbps
Channel(s) : 6 channels
Channel positions : Front: L C R, Side: L R, LFE
Sampling rate : 48.0 KHz
Bit depth : 16 bits
Compression mode : Lossy
Stream size : 226 MiB (6%)
Title : AC3 5.1 Dubbing PL
Language : Polish
Default : Yes
Forced : No


DISC 2

General:Hobbit.Bitwa.Pieciu.Armii.2014.PL.3D.miniH D(Leon 345)Disc2.mkv

Format : Matroska
Format version : Version 4 / Version 2
File size : 3.04 GiB
Duration : 1h 2mn
Overall bit rate : 7 010 Kbps
Movie name : Disc2.Title100.Bluray3DRip by Leon 345
Encoded date : UTC 2015-03-10 14:20:00
Writing application : mkvmerge v7.6.0 ('Garden of Dreams') 64bit built on Feb 8 2015 13:04:34
Writing library : libebml v1.3.1 + libmatroska v1.4.2

Video
ID : 1
Format : AVC
Format/Info : Advanced Video Codec
Format profile : [email protected]
Format settings, CABAC : Yes
Format settings, ReFrames : 2 frames
Codec ID : V_MPEG4/ISO/AVC
Duration : 1h 2mn
Bit rate : 6 480 Kbps
Width : 1 920 pixels
Height : 1 080 pixels
Display aspect ratio : 16:9 (OAR 2.39:1)
Frame rate mode : Constant
Frame rate : 23.976 fps
Color space : YUV
Chroma subsampling : 4:2:0
Bit depth : 8 bits
Scan type : Progressive
Bits/(Pixel*Frame) : 0.130
Stream size : 2.82 GiB (93%)
Title : Rip by Leon 345
Writing library : x264 core
Default : Yes
Forced : No
Color primaries : BT.709
Transfer characteristics : BT.709
Matrix coefficients : BT.709

Audio
ID : 2
Format : AC-3
Format/Info : Audio Coding 3
Mode extension : CM (complete main)
Format settings, Endianness : Big
Codec ID : A_AC3
Duration : 1h 2mn
Bit rate mode : Constant
Bit rate : 384 Kbps
Channel(s) : 6 channels
Channel positions : Front: L C R, Side: L R, LFE
Sampling rate : 48.0 KHz
Bit depth : 16 bits
Compression mode : Lossy
Stream size : 171 MiB (5%)
Title : AC3 5.1 Dubbing PL
Language : Polish
Default : Yes
Forced : No

Menu
00:00:00.000 : en:(01)00:00:00:000
00:05:00.000 : en:(02)00:05:00:000
00:10:00.000 : en:(03)00:10:00:000
00:15:00.000 : en:(04)00:15:00:000
00:20:00.000 : en:(05)00:20:00:000
00:25:00.000 : en:(06)00:25:00:000
00:30:00.000 : en:(07)00:30:00:000
00:35:00.000 : en:(08)00:35:00:000
00:40:00.000 : en:(09)00:40:00:000
00:45:00.000 : en:(10)00:45:00:000
00:50:00.000 : en:(11)00:50:00:000
00:55:00.000 : en:(12)00:55:00:000
01:00:00.000 : en:(13)01:00:00:000

Source [thx]:
A/V - BD3D HDAccess





Treść widoczna tylko dla użytkowników forum Files4You.org. Zaloguj się lub załóż darmowe konto aby otrzymać dostęp do niewidocznej treści.





Hobbit: Niezwykła podróż 3D / The Hobbit An Unexpected Journey (2012) EXTENDED EDiTiON (60FPS) 1080p.3D.BluRay.Half.Over-Under.x264.DTS-HD MA.7.1.AC3-SONDA | Lektor i Napisy PL

Format : Matroska at 23.5 Mbps
Length : 30.0 GiB for 3h 2mn 33s 920ms

Video #0 : AVC at 20.4 Mbps
Aspect : 1920 x 1080 (1.778) at 60.000 fps

Audio #0 : AC-3 at 448 Kbps
Infos : 6 channels, 48.0 KHz
Language : pl

Audio #1 : AC-3 at 640 Kbps
Infos : 6 channels, 48.0 KHz
Language : en

Audio #2 : DTS at Unknown / 1 509 Kbps
Infos : 8 channels / 6 channels, 48.0 KHz
Language : en

Text #0 : PGS
Language : pl


Treść widoczna tylko dla użytkowników forum Files4You.org. Zaloguj się lub załóż darmowe konto aby otrzymać dostęp do niewidocznej treści.






Hobbit: Bitwa Pięciu Armii 3D / The Hobbit: The Battle of the Five Armies (2014) (16:9) 1080p.3D.Half.Over-Under.DTS-HD MA.7.1.AC3.BluRay.x264-SONDA |Dubbing i Napisy PL

General
Format : Matroska
Format version : Version 2
File size : 19.2 GiB
Duration : 2h 24mn
Overall bit rate mode : Variable
Overall bit rate : 19.1 Mbps
Movie name : The.Hobbit.The.Battle.of.the.Five.Armies.3D.Bluray 3D Rip by Sonda [AT-Team]
Encoded date : UTC 2015-07-09 09:30:15
Writing application : mkvmerge v5.7.0 ('The Whirlwind') built on Jul 8 2012 20:08:51
Writing library : libebml v1.2.3 + libmatroska v1.3.0

Video
ID : 1
Format : AVC
Format/Info : Advanced Video Codec
Format profile : [email protected]
Format settings, CABAC : Yes
Format settings, ReFrames : 2 frames
Codec ID : V_MPEG4/ISO/AVC
Duration : 2h 24mn
Bit rate mode : Variable
Maximum bit rate : 19.8 Mbps
Width : 1 920 pixels
Height : 1 080 pixels
Display aspect ratio : 1.78:1
Frame rate mode : Constant
Frame rate : 23.976 fps
Color space : YUV
Chroma subsampling : 4:2:0
Bit depth : 8 bits
Scan type : Progressive
Title : Rip by Sonda
Default : Yes
Forced : No

Audio #1
ID : 2
Format : AC-3
Format/Info : Audio Coding 3
Mode extension : CM (complete main)
Format settings, Endianness : Big
Codec ID : A_AC3
Duration : 2h 24mn
Bit rate mode : Constant
Bit rate : 448 Kbps
Channel(s) : 6 channels
Channel positions : Front: L C R, Side: L R, LFE
Sampling rate : 48.0 KHz
Bit depth : 16 bits
Compression mode : Lossy
Stream size : 463 MiB (2%)
Title : AC3 5.1 Dubbing PL
Language : Polish
Default : Yes
Forced : Yes

Audio #2
ID : 3
Format : AC-3
Format/Info : Audio Coding 3
Mode extension : CM (complete main)
Format settings, Endianness : Big
Codec ID : A_AC3
Duration : 2h 24mn
Bit rate mode : Constant
Bit rate : 640 Kbps
Channel(s) : 6 channels
Channel positions : Front: L C R, Side: L R, LFE
Sampling rate : 48.0 KHz
Bit depth : 16 bits
Compression mode : Lossy
Stream size : 662 MiB (3%)
Title : AC3 5.1 ENG
Language : English
Default : No
Forced : No

Audio #3
ID : 4
Format : DTS
Format/Info : Digital Theater Systems
Format profile : MA / Core
Mode : 16
Format settings, Endianness : Big
Codec ID : A_DTS
Duration : 2h 24mn
Bit rate mode : Variable
Bit rate : 4719 / 1 509 Kbps
Channel(s) : 8 channels / 6 channels
Channel positions : Front: L C R, Side: L R, Back: L R, LFE / Front: L C R, Side: L R, LFE
Sampling rate : 48.0 KHz
Bit depth : 24 bits
Compression mode : Lossless / Lossy
Title : DTS-HD MA 7.1 Original
Language : English
Default : No
Forced : No

Text #1
ID : 5
Format : PGS
Muxing mode : zlib
Codec ID : S_HDMV/PGS
Codec ID/Info : The same subtitle format used on BDs/HD-DVDs
Title : Napisy PL 3D
Language : Polish
Default : No
Forced : No

Text #2
ID : 6
Format : PGS
Muxing mode : zlib
Codec ID : S_HDMV/PGS
Codec ID/Info : The same subtitle format used on BDs/HD-DVDs
Title : Napisy PL 3D do elfów i orków
Language : Polish
Default : No
Forced : No



Source:
A/V-BD3D HDAccess





Treść widoczna tylko dla użytkowników forum Files4You.org. Zaloguj się lub załóż darmowe konto aby otrzymać dostęp do niewidocznej treści.




Ostatnio edytowane przez *Motylek* ; 16.07.2015 o 13:44
 
Stare 4.03.2016, 20:07   #7
Demonxx
Elite Member
 
Awatar Demonxx
 
Domyślnie

Hobbit Bitwa Pięciu Armii 3D / The Hobbit The Battle of the Five Armies 3D (2014) Extended Edition 1080p.3D.BluRay.Half.Over-Under.x264.AC3-DX Lektor PL



reżyseria: Peter Jackson
scenariusz: Fran Walsh Philippa Boyens Guillermo del Toro Peter Jackson
gatunek: Fantasy Przygodowy
produkcja: Nowa Zelandia USA
premiera: 25 grudnia 2014 (Polska) 1 grudnia 2014 (świat)


Krasnoludy z Ereboru odzyskują ojczyznę, ściągając gniew smoka.
Wolne istoty Śródziemia łączą siły przeciwko Sauronowi, który wysyła legiony orków na Samotną Górę.


General
Format : Matroska
File size : 14.8 GiB
Duration : 2h 44mn
Overall bit rate : 12.9 Mbps
Video #1
Format : AVC
Format profile : [email protected]
Width : 1 920 pixels
Height : 800 pixels
Frame rate : 23.976 fps
Audio #2
Format : AC-3
Bit rate : 448 Kbps
Channel(s) : 6 channels
Sampling rate : 48.0 KHz
Language : Polish








Source A/V : BD
Kompresja RAR + 10% Danych Naprawczych
Brak Hasła
Plki po 1,6Gb

FileShark :





Treść widoczna tylko dla użytkowników forum Files4You.org. Zaloguj się lub załóż darmowe konto aby otrzymać dostęp do niewidocznej treści.




Demonxx jest nieaktywny  
Stare 14.04.2016, 22:01   #8
*Motylek*
Gość
 
Awatar *Motylek*
 
Domyślnie

Hobbit: Bitwa Pięciu Armii 3D / The Hobbit: The Battle of the Five Armies (2014) EXTENDED EDiTiON 1080p.3D.BluRay.Half.Over-Under.x264.DTS.5.1.AC3-SONDA | Lektor i Napisy PL

General
Format : Matroska
Format version : Version 2
File size : 17.4 GiB
Duration : 2h 44mn
Overall bit rate : 15.2 Mbps
Movie name : The.Hobbit.The.Battle.of.the.Five.Armies.3D.Extend ed.2014.PL.H-OU.BDRip.1080p.Bluray3D Rip by Sonda
Encoded date : UTC 2015-11-18 13:28:32
Writing application : mkvmerge v5.7.0 ('The Whirlwind') built on Jul 8 2012 20:08:51
Writing library : libebml v1.2.3 + libmatroska v1.3.0

Video
ID : 1
Format : AVC
Format/Info : Advanced Video Codec
Format profile : [email protected]
Format settings, CABAC : Yes
Format settings, ReFrames : 2 frames
Codec ID : V_MPEG4/ISO/AVC
Duration : 2h 44mn
Bit rate : 12.3 Mbps
Width : 1 920 pixels
Height : 1 080 pixels
Display aspect ratio : 16:9 (2.39:1)
Frame rate mode : Constant
Frame rate : 23.976 fps
Color space : YUV
Chroma subsampling : 4:2:0
Bit depth : 8 bits
Scan type : Progressive
Bits/(Pixel*Frame) : 0.248
Stream size : 14.2 GiB (81%)
Title : Rip by Sonda
Writing library : x264 core
Default : Yes
Forced : No
Color primaries : BT.709
Transfer characteristics : BT.709
Matrix coefficients : BT.709

Audio #1
ID : 2
Format : AC-3
Format/Info : Audio Coding 3
Mode extension : CM (complete main)
Format settings, Endianness : Big
Codec ID : A_AC3
Duration : 2h 44mn
Bit rate mode : Constant
Bit rate : 384 Kbps
Channel count : 6 channels
Channel positions : Front: L C R, Side: L R, LFE
Sampling rate : 48.0 KHz
Bit depth : 16 bits
Compression mode : Lossy
Stream size : 451 MiB (3%)
Title : AC3 5.1 Lektor PL
Language : Polish
Default : Yes
Forced : Yes

Audio #2
ID : 3
Format : AC-3
Format/Info : Audio Coding 3
Mode extension : CM (complete main)
Format settings, Endianness : Big
Codec ID : A_AC3
Duration : 2h 44mn
Bit rate mode : Constant
Bit rate : 640 Kbps
Channel count : 6 channels
Channel positions : Front: L C R, Side: L R, LFE
Sampling rate : 48.0 KHz
Bit depth : 16 bits
Compression mode : Lossy
Stream size : 751 MiB (4%)
Title : AC3 5.1
Language : English
Default : No
Forced : No

Audio #3
ID : 4
Format : DTS
Format/Info : Digital Theater Systems
Mode : 16
Format settings, Endianness : Big
Codec ID : A_DTS
Duration : 2h 44mn
Bit rate mode : Constant
Bit rate : 1 509 Kbps
Channel count : 6 channels
Channel positions : Front: L C R, Side: L R, LFE
Sampling rate : 48.0 KHz
Bit depth : 24 bits
Compression mode : Lossy
Stream size : 1.73 GiB (10%)
Title : DTS 5.1
Language : English
Default : No
Forced : No

Text #1
ID : 5
Format : UTF-8
Codec ID : S_TEXT/UTF8
Codec ID/Info : UTF-8 Plain Text
Title : Napisy PL 2D
Language : Polish
Default : No
Forced : No

Text #2
ID : 6
Format : PGS
Muxing mode : zlib
Codec ID : S_HDMV/PGS
Codec ID/Info : The same subtitle format used on BDs/HD-DVDs
Title : Napisy PL 3D
Language : Polish
Default : No
Forced : No

Text #3
ID : 7
Format : PGS
Muxing mode : zlib
Codec ID : S_HDMV/PGS
Codec ID/Info : The same subtitle format used on BDs/HD-DVDs
Title : Napisy ENG 3D
Language : English
Default : No
Forced : No



Source:
A/V-The.Hobbit.The.Battle.of.the.Five.Armies.2014.EXTE NDED.1080p.3D.BluRay.AVC.DTS-HD.MA.7.1-RARBG
Lektor PL - DVD






Treść widoczna tylko dla użytkowników forum Files4You.org. Zaloguj się lub załóż darmowe konto aby otrzymać dostęp do niewidocznej treści.




Ostatnio edytowane przez *Motylek* ; 24.08.2017 o 21:30
 
Stare 21.01.2019, 16:18   #9
*Motylek*
Gość
 
Awatar *Motylek*
 
Domyślnie

Hobbit: Bitwa Pięciu Armii 3D - The Hobbit: The Battle of the Five Armies (2014) Extended Edition] [mini-HD.1080p.3D.Half.Over-Under.AC3.BluRay.x264-SONDA | Lektor PL

3.88 GiB


Informacje o pliku video:

General
Format : Matroska
Format version : Version 2
File size : 3.88 GiB
Duration : 2h 44mn
Overall bit rate : 3 386 Kbps
Movie name : The.Hobbit.The.Battle.of.the.Five.Armies.3D.Extend ed.2014.PL.H-OU.BDRip.miniHD.1080p.Bluray3D Rip by Sonda [AT-Team]
Encoded date : UTC 2015-11-19 16:21:33
Writing application : mkvmerge v5.7.0 ('The Whirlwind') built on Jul 8 2012 20:08:51
Writing library : libebml v1.2.3 + libmatroska v1.3.0

Video
ID : 1
Format : AVC
Format/Info : Advanced Video Codec
Format profile : [email protected]
Format settings, CABAC : Yes
Format settings, ReFrames : 4 frames
Codec ID : V_MPEG4/ISO/AVC
Duration : 2h 44mn
Bit rate : 3 000 Kbps
Width : 1 920 pixels
Height : 1 080 pixels
Display aspect ratio : 16:9 (2.39:1)
Frame rate mode : Constant
Frame rate : 23.976 fps
Color space : YUV
Chroma subsampling : 4:2:0
Bit depth : 8 bits
Scan type : Progressive
Bits/(Pixel*Frame) : 0.060
Stream size : 3.36 GiB (87%)
Title : Rip by Sonda
Writing library : x264
Encoding settings : cabac=1 / ref=4 / deblock=1:-1:-1 / rc=2pass
Default : Yes
Forced : No

Audio
ID : 2
Format : AC-3
Format/Info : Audio Coding 3
Mode extension : CM (complete main)
Format settings, Endianness : Big
Codec ID : A_AC3
Duration : 2h 44mn
Bit rate mode : Constant
Bit rate : 384 Kbps
Channel count : 6 channels
Channel positions : Front: L C R, Side: L R, LFE
Sampling rate : 48.0 KHz
Bit depth : 16 bits
Compression mode : Lossy
Stream size : 451 MiB (11%)
Title : AC3 5.1 Lektor PL
Language : Polish
Default : Yes
Forced : No

Source:
V-The.Hobbit.The.Battle.of.the.Five.Armies.2014.EXTE NDED.1080p.3D.BluRay.AVC.DTS-HD.MA.7.1-RARBG
Lektor PL - DVD
Thanks - Sonda






Treść widoczna tylko dla użytkowników forum Files4You.org. Zaloguj się lub załóż darmowe konto aby otrzymać dostęp do niewidocznej treści.



 
Stare 30.09.2020, 10:58   #10
Axel Rudi
Zakaz pisania
 
Awatar Axel Rudi
 
Domyślnie

Hobbit: Bitwa Pięciu Armii / The Hobbit: The Battle of the Five Armies (2014) 1080p.BluRay.x264.AC3.Extended - j-23stan | Lektor PL

14.91 GiB

info

Wideo
ID : 1
Format : AVC
Format/Informacja : Advanced Video Codec
Profil formatu : [email protected]
Ustawienia formatu, CABAC : Tak
Ustawienia formatu, poklatkowy : 2 klatki
ID kodeka : V_MPEG4/ISO/AVC
Czas trwania : 2 h 44 min
Przepływność bitów : 12,6 Mb/s
Szerokość : 1.920 pikseli
Wysokość : 1.080 pikseli
Proporcje obrazu : 16:9
Tryb wyświetlania klatek : Stały
Szybkość wyświetlania klatek : 23,976 (24000/1001) kl/s
ColorSpace : YUV
ChromaSubsampling/String : 4:2:0
BitDepth/String : 8 bitów
Rodzaj skanu : Progresywny
bity/(piksele*ramki) : 0.254
Rozmiar strumienia : 14,5 GB (97%)
Biblioteka zapisująca : x264 core
Język : Angielski
Default : Tak
Forced : Nie
colour_range : Limited
colour_primaries : BT.709
transfer_characteristics : BT.709
matrix_coefficients : BT.709

Audio
ID : 2
Format : AC-3
Format/Informacja : Audio Coding 3
Ustawienia formatu, bez endiana : Big
ID kodeka : A_AC3
Czas trwania : 2 h 44 min
Rodzaj przepływności : Stała
Przepływność bitów : 384 kb/s
Kanały : 6 kanałów
Rozmieszczenie kanałów : Front: L C R, Side: L R, LFE
Częstotliwość próbkowania : 48,0 kHz
Szybkość wyświetlania klatek : 31,250 kl/s (1536 SPF)
BitDepth/String : 16 bitów
Rozmiar strumienia : 451 MiB (3%)
Tytuł : AC3 5.1 Lektor PL
Język : Polski
ServiceKind/String : Complete Main
Default : Tak
Forced : Tak*





Treść widoczna tylko dla użytkowników forum Files4You.org. Zaloguj się lub załóż darmowe konto aby otrzymać dostęp do niewidocznej treści.



Axel Rudi jest nieaktywny  
Słowa kluczowe związane z tematem Hobbit: Bitwa Pięciu Armii / The Hobbit: The Battle of the Five Armies (2014):
Hobbit: Bitwa Pięciu Armii / The Hobbit: The Battle of the Five Armies (2014) bez płacenia, Hobbit: Bitwa Pięciu Armii / The Hobbit: The Battle of the Five Armies (2014) no limits, Hobbit: Bitwa Pięciu Armii / The Hobbit: The Battle of the Five Armies (2014) bez premium, Hobbit: Bitwa Pięciu Armii / The Hobbit: The Battle of the Five Armies (2014) bez limitów, Hobbit: Bitwa Pięciu Armii / The Hobbit: The Battle of the Five Armies (2014) bez konta premium, Hobbit: Bitwa Pięciu Armii / The Hobbit: The Battle of the Five Armies (2014) za darmo, Hobbit: Bitwa Pięciu Armii / The Hobbit: The Battle of the Five Armies (2014) do pobrania, Hobbit: Bitwa Pięciu Armii / The Hobbit: The Battle of the Five Armies (2014) download, Hobbit: Bitwa Pięciu Armii / The Hobbit: The Battle of the Five Armies (2014) do ściągnięcia, Hobbit: Bitwa Pięciu Armii / The Hobbit: The Battle of the Five Armies (2014) free, Hobbit: Bitwa Pięciu Armii / The Hobbit: The Battle of the Five Armies (2014) files4you, Hobbit: Bitwa Pięciu Armii / The Hobbit: The Battle of the Five Armies (2014) exsite, Hobbit: Bitwa Pięciu Armii / The Hobbit: The Battle of the Five Armies (2014) zajefajna, Hobbit: Bitwa Pięciu Armii / The Hobbit: The Battle of the Five Armies (2014) peb, Hobbit: Bitwa Pięciu Armii / The Hobbit: The Battle of the Five Armies (2014) chomikuj, Hobbit: Bitwa Pięciu Armii / The Hobbit: The Battle of the Five Armies (2014) precyl, Hobbit: Bitwa Pięciu Armii / The Hobbit: The Battle of the Five Armies (2014) darkwarez, Hobbit: Bitwa Pięciu Armii / The Hobbit: The Battle of the Five Armies (2014) rar, Hobbit: Bitwa Pięciu Armii / The Hobbit: The Battle of the Five Armies (2014) filestube, Hobbit: Bitwa Pięciu Armii / The Hobbit: The Battle of the Five Armies (2014) elitewarez, Hobbit: Bitwa Pięciu Armii / The Hobbit: The Battle of the Five Armies (2014) catshare, Hobbit: Bitwa Pięciu Armii / The Hobbit: The Battle of the Five Armies (2014) rapidu, Hobbit: Bitwa Pięciu Armii / The Hobbit: The Battle of the Five Armies (2014) fileshark, Hobbit: Bitwa Pięciu Armii / The Hobbit: The Battle of the Five Armies (2014) lunaticfiles, Hobbit: Bitwa Pięciu Armii / The Hobbit: The Battle of the Five Armies (2014) uploadable, Hobbit: Bitwa Pięciu Armii / The Hobbit: The Battle of the Five Armies (2014) rapidgator, Hobbit: Bitwa Pięciu Armii / The Hobbit: The Battle of the Five Armies (2014) uploaded, Hobbit: Bitwa Pięciu Armii / The Hobbit: The Battle of the Five Armies (2014) turbobit, Hobbit: Bitwa Pięciu Armii / The Hobbit: The Battle of the Five Armies (2014) warez, Hobbit: Bitwa Pięciu Armii / The Hobbit: The Battle of the Five Armies (2014) portal, Hobbit: Bitwa Pięciu Armii / The Hobbit: The Battle of the Five Armies (2014) warez-bb
Przy okazji sprawdź poniższe tematy:

Podobne wątki
Wątek Autor wątku Forum Odpowiedzi Ostatni post / autor
Hobbit: Bitwa Pięciu Armii / Battle of the Five Armies (2014) bombacz Filmy MQ/LQ 3 27.02.2021 12:43
Hobbit: Pustkowie Smauga / The Hobbit: The Desolation of Smaug (2013) noutilus Filmy MQ/LQ 2 27.02.2021 12:15
Hobbit: Bitwa Pięciu Armii / The Hobbit: The Battle of the Five Armies (2014) *Motylek* Blu-Ray, DVD-R & High Definition 31 22.11.2020 05:55
Hobbit: Pustkowie Smauga / The Hobbit: The Desolation of Smaug (2013) *Motylek* Blu-Ray, DVD-R & High Definition 32 21.11.2020 18:47
Hobbit: Pustkowie Smauga / The Hobbit: The Desolation of Smaug (2013) *Motylek* Filmy 3D 12 21.01.2019 15:04

Narzędzia wątku




Nabór do ekipy!

Rapids24.pl


Files4You.org - Kontakt - Archiwum - Warunki korzystania z serwisu - Grupy - Na górę

Powered by vBulletin®
Files4You.org 2005-2020
Czasy w strefie GMT +1. Teraz jest 23:46.