Register
Zapomniales hasla?



Stare 1.05.2011, 21:09   #1
Karixal
Penetrator
 
Awatar Karixal
 
Domyślnie Podziemny krąg / Fight Club (1999)

Podziemny krąg / Fight Club (1999) BluRay m-720p AC3 x264-Ripper-DX Lektor PL



reżyseria: David Fincher
scenariusz: Jim Uhls
premiera: 11 lutego 2000 (Polska) 10 września 1999 (Świat)
produkcja: Niemcy, USA
gatunek: Thriller, Psychologiczny


Młody yuppie (Edward Norton), wbity w narzucony przez "wyścig szczurów" styl życia, cierpi na bezsenność. Za namową lekarza trafia na spotkania terapeutyczne ludzi ciężko i śmiertelnie chorych. Paradoksalnie odnajduje - w spotkaniach pełnych bólu i cierpienia - spokój. Wkrótce spotyka na swej drodze przewrotnego anarchistę Tylera Durdena (Brad Pitt), który imponuje mu swym nieskrępowaniem i wyzwoleniem. Obaj szybko stają się swoim wzajemnym dopełnieniem. Organizują zamknięte walki - Podziemny Krąg, który przeradza się w paramilitarną organizację anarchistyczną. Anarchia ogarnia cały kraj, a Tyler Durden okazuje się być...

General
Format : Matroska
File size : 2.06 GiB
Duration : 2h 19mn
Overall bit rate : 2 124 Kbps
Writing application : HandBrake 0.9.5
Writing library : libmkv 0.6.4.1
Video #1
ID : 1
Format : AVC
Format/Info : Advanced Video Codec
Format profile : [email protected]
Format settings, CABAC : Yes
Format settings, ReFrames : 4 frames
Muxing mode : Container [email protected]
Codec ID : V_MPEG4/ISO/AVC
Duration : 2h 19mn
Bit rate : 1 634 Kbps
Nominal bit rate : 1 709 Kbps
Width : 1 280 pixels
Height : 528 pixels
Display aspect ratio : 2.40:1
Frame rate : 23.976 fps
Resolution : 24 bits
Colorimetry : 4:2:0
Scan type : Progressive
Bits/(Pixel*Frame) : 0.101
Stream size : 1.59 GiB (77%)
Writing library : x264 core 112
Audio #2
ID : 2
Format : AC-3
Format/Info : Audio Coding 3
Codec ID : A_AC3
Duration : 2h 19mn
Bit rate mode : Constant
Bit rate : 448 Kbps
Channel(s) : 6 channels
Channel positions : Front: L C R, Surround: L R, LFE
Sampling rate : 48.0 KHz
Stream size : 446 MiB (21%)
Language : Polish



Screen 1
Screen 2


Treść widoczna tylko dla użytkowników forum Files4You.org. Zaloguj się lub załóż darmowe konto aby otrzymać dostęp do niewidocznej treści.



Karixal jest nieaktywny  
Słowa kluczowe związane z tematem Podziemny krąg / Fight Club (1999):
Podziemny krąg / Fight Club (1999) bez płacenia, Podziemny krąg / Fight Club (1999) no limits, Podziemny krąg / Fight Club (1999) bez premium, Podziemny krąg / Fight Club (1999) bez limitów, Podziemny krąg / Fight Club (1999) bez konta premium, Podziemny krąg / Fight Club (1999) za darmo, Podziemny krąg / Fight Club (1999) do pobrania, Podziemny krąg / Fight Club (1999) download, Podziemny krąg / Fight Club (1999) do ściągnięcia, Podziemny krąg / Fight Club (1999) free, Podziemny krąg / Fight Club (1999) files4you, Podziemny krąg / Fight Club (1999) exsite, Podziemny krąg / Fight Club (1999) zajefajna, Podziemny krąg / Fight Club (1999) peb, Podziemny krąg / Fight Club (1999) chomikuj, Podziemny krąg / Fight Club (1999) precyl, Podziemny krąg / Fight Club (1999) darkwarez, Podziemny krąg / Fight Club (1999) rar, Podziemny krąg / Fight Club (1999) filestube, Podziemny krąg / Fight Club (1999) elitewarez, Podziemny krąg / Fight Club (1999) catshare, Podziemny krąg / Fight Club (1999) rapidu, Podziemny krąg / Fight Club (1999) fileshark, Podziemny krąg / Fight Club (1999) lunaticfiles, Podziemny krąg / Fight Club (1999) uploadable, Podziemny krąg / Fight Club (1999) rapidgator, Podziemny krąg / Fight Club (1999) uploaded, Podziemny krąg / Fight Club (1999) turbobit, Podziemny krąg / Fight Club (1999) warez, Podziemny krąg / Fight Club (1999) portal, Podziemny krąg / Fight Club (1999) warez-bb
Przy okazji sprawdź poniższe tematy:

Podobne wątki
Wątek Autor wątku Forum Odpowiedzi Ostatni post / autor
Palahniuk Chuck - Fight Club: Podziemny krąg Tyler Audiobooki [PL] 2 29.12.2022 21:56
Podziemny krąg / Fight Club (1999) savio39 Filmy MQ/LQ 0 12.06.2010 17:51
Podziemny krąg / Fight Club (1999) redsnake56™ Blu-Ray, DVD-R & High Definition 0 29.03.2009 18:46

Narzędzia wątku




Nabór do ekipy!



Files4You.org - Kontakt - Archiwum - Warunki korzystania z serwisu - Grupy - Na górę

Powered by vBulletin®
Files4You.org 2005-2023
Czasy w strefie GMT +1. Teraz jest 12:29.