Register
Zapomniales hasla?
Wróć   Files4you.org - Forum wielotematyczne > Download > FILMY > Filmy 3D > David Attenborough: Podbój Niebios / David Attenborough's: Conquest of the Skies 3D (



Stare 28.08.2017, 18:06   #1
*Motylek*
Friend

 
Awatar *Motylek*
 
Domyślnie David Attenborough: Podbój Niebios / David Attenborough's: Conquest of the Skies 3D (

David Attenborough: Podbój Niebios / David Attenborough's: Conquest of the Skies 3D (2015) 1080p.BRRip.H-OU.x264.AC3-alE13 |Napisy PL

David Attenborough: Podbój Niebios / David Attenborough's: Conquest of the Skies 3D (


premiera: 01-01-2015
produkcja: UK
gatunek: dokument
scenariusz: David Attenborough
reżyseria: David Lee
czas: 52min 28s

Podbij Niebios 3D Davida Attenborough, to brytyjski mini serial telewizyjny o historii przyrody, śledzący ewolucję lotu zwierząt. Attenborough analizuje gady co wzleciały w powietrze, szybujące ssaki, akrobatyczne loty owadów i świat ptaków.

David Attenborough: Podbój Niebios / David Attenborough's: Conquest of the Skies 3D (2015) 1080p.BRRip.H-OU.x264.AC3-alE13 |Napisy PL


Spoiler:
Conquest of the Skies 3D (2014)-alE13_ part 2.mkv
Format : Matroska
Format version : Version 4 / Version 2
File size : 7.28 GiB
Duration : 52 min 28 s
Overall bit rate : 19.9 Mb/s
Movie name : Conquest of the Skies 3D (2014)-alE13_ part 2
Encoded date : UTC 2017-08-13 07:53:56
Writing application : mkvmerge v8.1.0 ('Psychedelic Postcard') 64bit
Writing library : libebml v1.3.1 + libmatroska v1.4.2
Cover : Yes
Attachments : Cover.jpg

Video
ID : 1
Format : AVC
Format/Info : Advanced Video Codec
Format profile : [email protected]
Format settings, CABAC : Yes
Format settings, RefFrames : 2 frames
Codec ID : V_MPEG4/ISO/AVC
Duration : 52 min 28 s
Bit rate : 19.2 Mb/s
Width : 1 920 pixels
Height : 1 080 pixels
Display aspect ratio : 16:9
Frame rate mode : Constant
Frame rate : 23.976 (24000/1001) FPS
Color space : YUV
Chroma subsampling : 4:2:0
Bit depth : 8 bits
Scan type : Progressive
Bits/(Pixel*Frame) : 0.386
Stream size : 7.03 GiB (97%)
Title : Conquest of the Skies 3D (2014)-alE13_ part 2
Writing library : x264 core 142
Default : Yes
Forced : No
Color range : Limited
Color primaries : BT.709
Transfer characteristics : BT.709
Matrix coefficients : BT.709

Audio
ID : 2
Format : AC-3
Format/Info : Audio Coding 3
Format settings, Endianness : Big
Codec ID : A_AC3
Duration : 52 min 28 s
Bit rate mode : Constant
Bit rate : 640 kb/s
Channel(s) : 6 channels
Channel positions : Front: L C R, Side: L R, LFE
Sampling rate : 48.0 kHz
Frame rate : 31.250 FPS (1536 SPF)
Bit depth : 16 bits
Compression mode : Lossy
Stream size : 240 MiB (3%)
Title : Conquest of the Skies 3D (2014)-alE13_ part 2_AC3
Language : English
Service kind : Complete Main
Default : No
Forced : No

Text #1
ID : 3
Format : UTF-8
Codec ID : S_TEXT/UTF8
Codec ID/Info : UTF-8 Plain Text
Duration : 50 min 32 s
Bit rate : 57 b/s
Count of elements : 426
Stream size : 21.2 KiB (0%)
Title : Conquest of the Skies 3D (2014)-alE13_ part 2
Language : Polish
Default : Yes
Forced : No

Text #2
ID : 4
Format : UTF-8
Codec ID : S_TEXT/UTF8
Codec ID/Info : UTF-8 Plain Text
Duration : 50 min 23 s
Bit rate : 63 b/s
Count of elements : 425
Stream size : 23.5 KiB (0%)
Title : Conquest of the Skies 3D (2014)-alE13_ part 2
Language : English
Default : No
Forced : No

Text #3
ID : 5
Format : VobSub
Muxing mode : zlib
Codec ID : S_VOBSUB
Codec ID/Info : Picture based subtitle format used on DVDs
Duration : 50 min 32 s
Bit rate : 8 610 b/s
Count of elements : 426
Stream size : 3.11 MiB (0%)
Title : Conquest of the Skies 3D (2014)-alE13_ part 2_VobSub
Language : Polish
Default : No
Forced : No

Text #4
ID : 6
Format : VobSub
Muxing mode : zlib
Codec ID : S_VOBSUB
Codec ID/Info : Picture based subtitle format used on DVDs
Duration : 50 min 23 s
Bit rate : 9 345 b/s
Count of elements : 425
Stream size : 3.37 MiB (0%)
Title : Conquest of the Skies 3D (2014)-alE13_ part 2_VobSub
Language : English
Default : No
Forced : No

Menu
00:00:00.000 : en:1. Harlequin Tree Frog
00:07:21.358 : en:2. Dimorphodon
00:17:05.983 : en:3. The Birds
00:23:39.084 : en:4. Types of Feathers
00:34:13.677 : en:5. How Wings Work
00:44:48.518 : en:6. The Bat





Treść widoczna tylko dla użytkowników forum Files4You.org. Zaloguj się lub załóż darmowe konto aby otrzymać dostęp do niewidocznej treści.



*Motylek* jest nieaktywny  
Stare 3.05.2019, 23:31   #2
*Motylek*
Friend

 
Awatar *Motylek*
 
Domyślnie

David Attenborough: Podbój Niebios / David Attenborough's: Conquest of the Skies 3D PART 2 (2015) 1080p.BRRip.H-OU.x264.AC3-alE13 |Napisy PL

7.28 GiB

Spoiler:
Conquest of the Skies 3D (2014)-alE13_ part 2.mkv
Format : Matroska
Format version : Version 4 / Version 2
File size : 7.28 GiB
Duration : 52 min 28 s
Overall bit rate : 19.9 Mb/s
Movie name : Conquest of the Skies 3D (2014)-alE13_ part 2
Encoded date : UTC 2017-08-13 07:53:56
Writing application : mkvmerge v8.1.0 ('Psychedelic Postcard') 64bit
Writing library : libebml v1.3.1 + libmatroska v1.4.2
Cover : Yes
Attachments : Cover.jpg

Video
ID : 1
Format : AVC
Format/Info : Advanced Video Codec
Format profile : [email protected]
Format settings, CABAC : Yes
Format settings, RefFrames : 2 frames
Codec ID : V_MPEG4/ISO/AVC
Duration : 52 min 28 s
Bit rate : 19.2 Mb/s
Width : 1 920 pixels
Height : 1 080 pixels
Display aspect ratio : 16:9
Frame rate mode : Constant
Frame rate : 23.976 (24000/1001) FPS
Color space : YUV
Chroma subsampling : 4:2:0
Bit depth : 8 bits
Scan type : Progressive
Bits/(Pixel*Frame) : 0.386
Stream size : 7.03 GiB (97%)
Title : Conquest of the Skies 3D (2014)-alE13_ part 2
Writing library : x264 core 142
Default : Yes
Forced : No
Color range : Limited
Color primaries : BT.709
Transfer characteristics : BT.709
Matrix coefficients : BT.709

Audio
ID : 2
Format : AC-3
Format/Info : Audio Coding 3
Format settings, Endianness : Big
Codec ID : A_AC3
Duration : 52 min 28 s
Bit rate mode : Constant
Bit rate : 640 kb/s
Channel(s) : 6 channels
Channel positions : Front: L C R, Side: L R, LFE
Sampling rate : 48.0 kHz
Frame rate : 31.250 FPS (1536 SPF)
Bit depth : 16 bits
Compression mode : Lossy
Stream size : 240 MiB (3%)
Title : Conquest of the Skies 3D (2014)-alE13_ part 2_AC3
Language : English
Service kind : Complete Main
Default : No
Forced : No

Text #1
ID : 3
Format : UTF-8
Codec ID : S_TEXT/UTF8
Codec ID/Info : UTF-8 Plain Text
Duration : 50 min 32 s
Bit rate : 57 b/s
Count of elements : 426
Stream size : 21.2 KiB (0%)
Title : Conquest of the Skies 3D (2014)-alE13_ part 2
Language : Polish
Default : Yes
Forced : No

Text #2
ID : 4
Format : UTF-8
Codec ID : S_TEXT/UTF8
Codec ID/Info : UTF-8 Plain Text
Duration : 50 min 23 s
Bit rate : 63 b/s
Count of elements : 425
Stream size : 23.5 KiB (0%)
Title : Conquest of the Skies 3D (2014)-alE13_ part 2
Language : English
Default : No
Forced : No

Text #3
ID : 5
Format : VobSub
Muxing mode : zlib
Codec ID : S_VOBSUB
Codec ID/Info : Picture based subtitle format used on DVDs
Duration : 50 min 32 s
Bit rate : 8 610 b/s
Count of elements : 426
Stream size : 3.11 MiB (0%)
Title : Conquest of the Skies 3D (2014)-alE13_ part 2_VobSub
Language : Polish
Default : No
Forced : No

Text #4
ID : 6
Format : VobSub
Muxing mode : zlib
Codec ID : S_VOBSUB
Codec ID/Info : Picture based subtitle format used on DVDs
Duration : 50 min 23 s
Bit rate : 9 345 b/s
Count of elements : 425
Stream size : 3.37 MiB (0%)
Title : Conquest of the Skies 3D (2014)-alE13_ part 2_VobSub
Language : English
Default : No
Forced : No

Menu
00:00:00.000 : en:1. Harlequin Tree Frog
00:07:21.358 : en:2. Dimorphodon
00:17:05.983 : en:3. The Birds
00:23:39.084 : en:4. Types of Feathers
00:34:13.677 : en:5. How Wings Work
00:44:48.518 : en:6. The Bat




Treść widoczna tylko dla użytkowników forum Files4You.org. Zaloguj się lub załóż darmowe konto aby otrzymać dostęp do niewidocznej treści.



*Motylek* jest nieaktywny  

Tagi do tematu David Attenborough: Podbój Niebios / David Attenborough's: Conquest of the Skies 3D (
attenborough, conquest, david, niebios, podbój, skies
Słowa kluczowe związane z tematem David Attenborough: Podbój Niebios / David Attenborough's: Conquest of the Skies 3D (:
David Attenborough: Podbój Niebios / David Attenborough's: Conquest of the Skies 3D ( bez płacenia, David Attenborough: Podbój Niebios / David Attenborough's: Conquest of the Skies 3D ( no limits, David Attenborough: Podbój Niebios / David Attenborough's: Conquest of the Skies 3D ( bez premium, David Attenborough: Podbój Niebios / David Attenborough's: Conquest of the Skies 3D ( bez limitów, David Attenborough: Podbój Niebios / David Attenborough's: Conquest of the Skies 3D ( bez konta premium, David Attenborough: Podbój Niebios / David Attenborough's: Conquest of the Skies 3D ( za darmo, David Attenborough: Podbój Niebios / David Attenborough's: Conquest of the Skies 3D ( do pobrania, David Attenborough: Podbój Niebios / David Attenborough's: Conquest of the Skies 3D ( download, David Attenborough: Podbój Niebios / David Attenborough's: Conquest of the Skies 3D ( do ściągnięcia, David Attenborough: Podbój Niebios / David Attenborough's: Conquest of the Skies 3D ( free, David Attenborough: Podbój Niebios / David Attenborough's: Conquest of the Skies 3D ( files4you, David Attenborough: Podbój Niebios / David Attenborough's: Conquest of the Skies 3D ( exsite, David Attenborough: Podbój Niebios / David Attenborough's: Conquest of the Skies 3D ( zajefajna, David Attenborough: Podbój Niebios / David Attenborough's: Conquest of the Skies 3D ( peb, David Attenborough: Podbój Niebios / David Attenborough's: Conquest of the Skies 3D ( chomikuj, David Attenborough: Podbój Niebios / David Attenborough's: Conquest of the Skies 3D ( precyl, David Attenborough: Podbój Niebios / David Attenborough's: Conquest of the Skies 3D ( darkwarez, David Attenborough: Podbój Niebios / David Attenborough's: Conquest of the Skies 3D ( rar, David Attenborough: Podbój Niebios / David Attenborough's: Conquest of the Skies 3D ( filestube, David Attenborough: Podbój Niebios / David Attenborough's: Conquest of the Skies 3D ( elitewarez, David Attenborough: Podbój Niebios / David Attenborough's: Conquest of the Skies 3D ( catshare, David Attenborough: Podbój Niebios / David Attenborough's: Conquest of the Skies 3D ( rapidu, David Attenborough: Podbój Niebios / David Attenborough's: Conquest of the Skies 3D ( fileshark, David Attenborough: Podbój Niebios / David Attenborough's: Conquest of the Skies 3D ( lunaticfiles, David Attenborough: Podbój Niebios / David Attenborough's: Conquest of the Skies 3D ( uploadable, David Attenborough: Podbój Niebios / David Attenborough's: Conquest of the Skies 3D ( rapidgator, David Attenborough: Podbój Niebios / David Attenborough's: Conquest of the Skies 3D ( uploaded, David Attenborough: Podbój Niebios / David Attenborough's: Conquest of the Skies 3D ( turbobit, David Attenborough: Podbój Niebios / David Attenborough's: Conquest of the Skies 3D ( warez, David Attenborough: Podbój Niebios / David Attenborough's: Conquest of the Skies 3D ( portal, David Attenborough: Podbój Niebios / David Attenborough's: Conquest of the Skies 3D ( warez-bb
Przy okazji sprawdź poniższe tematy:
Narzędzia wątku



Files4You Fanpage

Nabór do ekipy!

Rapids24.pl


Tinypic.pl

Files4You.org - Kontakt - Archiwum - Warunki korzystania z serwisu - Grupy - Na górę

Powered by vBulletin®
by Files4You.Net 2005-2015
Czasy w strefie GMT +2. Teraz jest 01:10.