Register
Zapomniales hasla?



Stare 16.05.2019, 11:53   #1
*Motylek*
Friend

 
Awatar *Motylek*
 
Domyślnie Chasing Bullitt (2018)

Chasing Bullitt (2018) 720p.WEB-DL.XviD.AC3-FGT

2.60 GB

Chasing Bullitt (2018)


Produkcja: USA
gatunek:dramat
czas: 90 min

W styczniu 1971 roku legenda Hollywood, Steve McQueen, wchodzi w niezwykłą ofertę: chce tylko przyjąć swoją kolejną rolę, gdy jego agent pomaga mu znaleźć rzadki model Forda Mustanga GT 390 „Bullitt”. W trakcie poszukiwań McQueen recenzuje swoje życie - jego małżeństwo, terapię, problemy finansowe i karrie, która może się skończyć.





Informacje o pliku video:

Spoiler:
ideo
ID : 0
Format : MPEG-4 Visual
Format profile : [email protected]
Format settings, BVOP : No
Format settings, QPel : No
Format settings, GMC : No warppoints
Format settings, Matrix : Default (H.263)
Codec ID : XVID
Codec ID/Hint : XviD
Duration : 1 h 30 min
Bit rate : 3 745 kb/s
Width : 1 280 pixels
Height : 532 pixels
Display aspect ratio : 2.40:1
Frame rate : 23.976 (24000/1001) FPS
Color space : YUV
Chroma subsampling : 4:2:0
Bit depth : 8 bits
Scan type : Progressive
Compression mode : Lossy
Bits/(Pixel*Frame) : 0.229
Stream size : 2.35 GiB (90%)
Writing library : Lavc58.1.100

Audio
ID : 1
Format : AC-3
Format/Info : Audio Coding 3
Commercial name : Dolby Digital
Codec ID : 2000
Duration : 1 h 30 min
Bit rate mode : Constant
Bit rate : 384 kb/s
Channel(s) : 6 channels
Channel layout : L R C LFE Ls Rs
Sampling rate : 48.0 kHz
Frame rate : 31.250 FPS (1536 SPF)
Bit depth : 16 bits
Compression mode : Lossy
Stream size : 247 MiB (9%)
Alignment : Aligned on interleaves
Interleave, duration : 42 ms (1.00 video frame)
Interleave, preload duration : 512 ms
Service kind : Complete Main



Chasing Bullitt (2018)



Treść widoczna tylko dla użytkowników forum Files4You.org. Zaloguj się lub załóż darmowe konto aby otrzymać dostęp do niewidocznej treści.



*Motylek* jest nieaktywny  
Słowa kluczowe związane z tematem Chasing Bullitt (2018):
Chasing Bullitt (2018) bez płacenia, Chasing Bullitt (2018) no limits, Chasing Bullitt (2018) bez premium, Chasing Bullitt (2018) bez limitów, Chasing Bullitt (2018) bez konta premium, Chasing Bullitt (2018) za darmo, Chasing Bullitt (2018) do pobrania, Chasing Bullitt (2018) download, Chasing Bullitt (2018) do ściągnięcia, Chasing Bullitt (2018) free, Chasing Bullitt (2018) files4you, Chasing Bullitt (2018) exsite, Chasing Bullitt (2018) zajefajna, Chasing Bullitt (2018) peb, Chasing Bullitt (2018) chomikuj, Chasing Bullitt (2018) precyl, Chasing Bullitt (2018) darkwarez, Chasing Bullitt (2018) rar, Chasing Bullitt (2018) filestube, Chasing Bullitt (2018) elitewarez, Chasing Bullitt (2018) catshare, Chasing Bullitt (2018) rapidu, Chasing Bullitt (2018) fileshark, Chasing Bullitt (2018) lunaticfiles, Chasing Bullitt (2018) uploadable, Chasing Bullitt (2018) rapidgator, Chasing Bullitt (2018) uploaded, Chasing Bullitt (2018) turbobit, Chasing Bullitt (2018) warez, Chasing Bullitt (2018) portal, Chasing Bullitt (2018) warez-bb
Przy okazji sprawdź poniższe tematy:
Narzędzia wątku


Podobne wątki
Wątek Autor wątku Forum Odpowiedzi Ostatni post / autor
Chasing Bullitt (2018) *Motylek* Blu-Ray, DVD-R & High Definition 0 16.05.2019 10:58
Chris Bay - Chasing the Sun (2018) galerida Metal & Rock & Punk 0 19.03.2018 23:00
Chasing Dead (2016) Vaniszek Gry na PC 2 8.03.2016 13:34


Files4You Fanpage

Nabór do ekipy!

Rapids24.pl


Tinypic.pl

Files4You.org - Kontakt - Archiwum - Warunki korzystania z serwisu - Grupy - Na górę

Powered by vBulletin®
by Files4You.Net 2005-2015
Czasy w strefie GMT +2. Teraz jest 14:53.