Register
Zapomniales hasla?
Wróć   Files4you.org - Forum wielotematyczne > Download > FILMY > Filmy MQ/LQ > Adventures Of Aladdin (2019)



Stare 15.05.2019, 15:59   #1
*Motylek*
Friend

 
Awatar *Motylek*
 
Domyślnie Adventures Of Aladdin (2019)

Adventures Of Aladdin (2019) 720p.WEB-DL.XviD.AC3-FGT

2.56 GB

Adventures Of Aladdin (2019)


gatunek: przygodowy
kraj:USA

Z pomocą magicznej lampy zubożały młody człowiek zamienia się w księcia, aby zdobyć serce pięknej księżniczki.





Informacje o pliku video:

Spoiler:
Video
ID : 0
Format : MPEG-4 Visual
Format profile : [email protected]
Format settings, BVOP : No
Format settings, QPel : No
Format settings, GMC : No warppoints
Format settings, Matrix : Default (H.263)
Codec ID : XVID
Codec ID/Hint : XviD
Duration : 1 h 27 min
Bit rate : 3 791 kb/s
Width : 1 280 pixels
Height : 720 pixels
Display aspect ratio : 16:9
Frame rate : 23.976 (24000/1001) FPS
Color space : YUV
Chroma subsampling : 4:2:0
Bit depth : 8 bits
Scan type : Progressive
Compression mode : Lossy
Bits/(Pixel*Frame) : 0.172
Stream size : 2.32 GiB (91%)
Writing library : Lavc58.1.100

Audio
ID : 1
Format : AC-3
Format/Info : Audio Coding 3
Commercial name : Dolby Digital
Codec ID : 2000
Duration : 1 h 27 min
Bit rate mode : Constant
Bit rate : 384 kb/s
Channel(s) : 6 channels
Channel layout : L R C LFE Ls Rs
Sampling rate : 48.0 kHz
Frame rate : 31.250 FPS (1536 SPF)
Bit depth : 16 bits
Compression mode : Lossy
Stream size : 241 MiB (9%)
Alignment : Aligned on interleaves
Interleave, duration : 42 ms (1.00 video frame)
Interleave, preload duration : 512 ms
Service kind : Complete Main



Adventures Of Aladdin (2019)



Treść widoczna tylko dla użytkowników forum Files4You.org. Zaloguj się lub załóż darmowe konto aby otrzymać dostęp do niewidocznej treści.



*Motylek* jest nieaktywny  
Stare 15.05.2019, 23:18   #2
kairo1981
Retaliator
 
Awatar kairo1981
 
Domyślnie

Adventures Of Aladdin(2019).HDRip.XviD.AC3-FOX {Napisy PL}


SCREENY:

Adventures Of Aladdin (2019)
Adventures Of Aladdin (2019)

Dane techniczne:

Spoiler:
Format : Matroska
Format version : Version 2
File size : 1.67 GiB
Duration : 1 h 27 min
Overall bit rate : 2 726 kb/s
Writing application : Lavf52.39.1
Writing library : Lavf52.39.1

Video
ID : 1
Format : MPEG-4 Visual
Format profile : [email protected]
Format settings, BVOP : No
Format settings, QPel : No
Format settings, GMC : No warppoints
Format settings, Matrix : Default (H.263)
Codec ID : V_MPEG4/ISO/ASP
Codec ID/Info : Advanced Simple Profile
Duration : 1 h 27 min
Bit rate : 2 543 kb/s
Width : 720 pixels
Height : 404 pixels
Display aspect ratio : 16:9
Frame rate mode : Constant
Frame rate : 25.000 FPS
Color space : YUV
Chroma subsampling : 4:2:0
Bit depth : 8 bits
Scan type : Progressive
Compression mode : Lossy
Bits/(Pixel*Frame) : 0.350
Stream size : 1.56 GiB (93%)
Writing library : Lavc52.37.0
Default : Yes
Forced : No

Audio
ID : 2
Format : MPEG Audio
Format version : Version 1
Format profile : Layer 2
Codec ID : A_MPEG/L2
Codec ID/Hint : MP2
Duration : 1 h 27 min
Bit rate mode : Constant
Bit rate : 128 kb/s
Channel(s) : 2 channels
Sampling rate : 44.1 kHz
Compression mode : Lossy
Stream size : 80.2 MiB (5%)
Default : Yes
Forced : No



Download:




Treść widoczna tylko dla użytkowników forum Files4You.org. Zaloguj się lub załóż darmowe konto aby otrzymać dostęp do niewidocznej treści.



kairo1981 jest nieaktywny  

Tagi do tematu Adventures Of Aladdin (2019)
2019, adventures, aladdin
Słowa kluczowe związane z tematem Adventures Of Aladdin (2019):
Adventures Of Aladdin (2019) bez płacenia, Adventures Of Aladdin (2019) no limits, Adventures Of Aladdin (2019) bez premium, Adventures Of Aladdin (2019) bez limitów, Adventures Of Aladdin (2019) bez konta premium, Adventures Of Aladdin (2019) za darmo, Adventures Of Aladdin (2019) do pobrania, Adventures Of Aladdin (2019) download, Adventures Of Aladdin (2019) do ściągnięcia, Adventures Of Aladdin (2019) free, Adventures Of Aladdin (2019) files4you, Adventures Of Aladdin (2019) exsite, Adventures Of Aladdin (2019) zajefajna, Adventures Of Aladdin (2019) peb, Adventures Of Aladdin (2019) chomikuj, Adventures Of Aladdin (2019) precyl, Adventures Of Aladdin (2019) darkwarez, Adventures Of Aladdin (2019) rar, Adventures Of Aladdin (2019) filestube, Adventures Of Aladdin (2019) elitewarez, Adventures Of Aladdin (2019) catshare, Adventures Of Aladdin (2019) rapidu, Adventures Of Aladdin (2019) fileshark, Adventures Of Aladdin (2019) lunaticfiles, Adventures Of Aladdin (2019) uploadable, Adventures Of Aladdin (2019) rapidgator, Adventures Of Aladdin (2019) uploaded, Adventures Of Aladdin (2019) turbobit, Adventures Of Aladdin (2019) warez, Adventures Of Aladdin (2019) portal, Adventures Of Aladdin (2019) warez-bb
Przy okazji sprawdź poniższe tematy:
Narzędzia wątku


Podobne wątki
Wątek Autor wątku Forum Odpowiedzi Ostatni post / autor
Adventures Of Aladdin (2019) *Motylek* Blu-Ray, DVD-R & High Definition 0 15.05.2019 09:22
ZAYN & Zhavia Ward - A Whole New World (End Title) [From Aladdin ] Single (2019) ad-team Audio HQ 0 14.05.2019 12:19
RollerCoaster Tycoon Adventures (2019) Vaniszek Gry na PC 0 26.04.2019 12:02
Chilling Adventures of Sabrina (2019) Sezon 2 mp3de Seriale TV 4 7.04.2019 20:27


Files4You Fanpage

Nabór do ekipy!

Rapids24.pl


Tinypic.pl

Files4You.org - Kontakt - Archiwum - Warunki korzystania z serwisu - Grupy - Na górę

Powered by vBulletin®
by Files4You.Net 2005-2015
Czasy w strefie GMT +2. Teraz jest 01:15.