Register
Zapomniales hasla?



Stare 16.12.2018, 22:35   #1
*Motylek*
Friend

 
Awatar *Motylek*
 
Domyślnie Creed II (2018)

Creed II (2018) HDCAM.XViD.AC3-ETRG

1.37 GB

Creed II (2018)

reżyseria: Steven Caple Jr.
scenariusz: Sylvester Stallone, Juel Taylor
gatunek: Dramat, Sportowy
produkcja: USA
premiera: 23 listopada 2018 (Polska) 11 listopada 2018 (świat)


Nowy mistrz wagi półciężkiej Adonis Creed, trenujący pod opieką Rocky'ego, staje do walki z Viktorem, synem legendarnego Ivana Drago.



Informacje o pliku video:

Spoiler:
Format: AVI at 1 620 Kbp/s
Length: 1.37 GiB for 2h 00min 42sec

Video: MPEG4 Visual at 1 481 Kbp/s
Aspect: 720x320 at 30.00 fps

Audio: AC3 at 128 Kbp/s
Info: 2 channels stereo, 48.00 KHz



Creed II (2018)



Treść widoczna tylko dla użytkowników forum Files4You.org. Zaloguj się lub załóż darmowe konto aby otrzymać dostęp do niewidocznej treści.



*Motylek* jest teraz aktywny  
Stare 12.02.2019, 17:15   #2
*Motylek*
Friend

 
Awatar *Motylek*
 
Domyślnie

Creed II (2018) 720p.WEB-DL.XviD.AC3-FGT

3.79 GB

Informacje o pliku video:

Spoiler:
Video
ID : 0
Format : MPEG-4 Visual
Format profile : [email protected]
Format settings, BVOP : No
Format settings, QPel : No
Format settings, GMC : No warppoints
Format settings, Matrix : Default (H.263)
Codec ID : XVID
Codec ID/Hint : XviD
Duration : 2 h 9 min
Bit rate : 3 777 kb/s
Width : 1 280 pixels
Height : 534 pixels
Display aspect ratio : 2.40:1
Frame rate : 23.976 (24000/1001) FPS
Color space : YUV
Chroma subsampling : 4:2:0
Bit depth : 8 bits
Scan type : Progressive
Compression mode : Lossy
Bits/(Pixel*Frame) : 0.230
Stream size : 3.43 GiB (91%)
Writing library : Lavc58.1.100

Audio
ID : 1
Format : AC-3
Format/Info : Audio Coding 3
Commercial name : Dolby Digital
Codec ID : 2000
Duration : 2 h 9 min
Bit rate mode : Constant
Bit rate : 384 kb/s
Channel(s) : 6 channels
Channel layout : L R C LFE Ls Rs
Sampling rate : 48.0 kHz
Frame rate : 31.250 FPS (1536 SPF)
Bit depth : 16 bits
Compression mode : Lossy
Stream size : 357 MiB (9%)
Alignment : Aligned on interleaves
Interleave, duration : 42 ms (1.00 video frame)
Interleave, preload duration : 512 ms
Service kind : Complete Main





Creed II (2018)



Treść widoczna tylko dla użytkowników forum Files4You.org. Zaloguj się lub załóż darmowe konto aby otrzymać dostęp do niewidocznej treści.



*Motylek* jest teraz aktywny  

Tagi do tematu Creed II (2018)
2018, creed
Słowa kluczowe związane z tematem Creed II (2018):
Creed II (2018) bez płacenia, Creed II (2018) no limits, Creed II (2018) bez premium, Creed II (2018) bez limitów, Creed II (2018) bez konta premium, Creed II (2018) za darmo, Creed II (2018) do pobrania, Creed II (2018) download, Creed II (2018) do ściągnięcia, Creed II (2018) free, Creed II (2018) files4you, Creed II (2018) exsite, Creed II (2018) zajefajna, Creed II (2018) peb, Creed II (2018) chomikuj, Creed II (2018) precyl, Creed II (2018) darkwarez, Creed II (2018) rar, Creed II (2018) filestube, Creed II (2018) elitewarez, Creed II (2018) catshare, Creed II (2018) rapidu, Creed II (2018) fileshark, Creed II (2018) lunaticfiles, Creed II (2018) uploadable, Creed II (2018) rapidgator, Creed II (2018) uploaded, Creed II (2018) turbobit, Creed II (2018) warez, Creed II (2018) portal, Creed II (2018) warez-bb
Przy okazji sprawdź poniższe tematy:
Narzędzia wątku


Podobne wątki
Wątek Autor wątku Forum Odpowiedzi Ostatni post / autor
Creed: Narodziny legendy / Creed (2015) *Motylek* Filmy MQ/LQ 51 29.11.2018 17:49
Assassin's Creed Odyssey (2018) Vaniszek Gry na PC 3 18.11.2018 00:46
Assassins Creed Origins: Klątwa Faraonów (2018) barinoshrek Gry na PC 0 11.10.2018 13:11
Creed: Narodziny legendy / Creed (2015) *Motylek* Blu-Ray, DVD-R & High Definition 17 8.08.2018 13:28


Files4You Fanpage

Nabór do ekipy!

Rapids24.pl


Tinypic.pl

Files4You.org - Kontakt - Archiwum - Warunki korzystania z serwisu - Grupy - Na górę

Powered by vBulletin®
by Files4You.Net 2005-2015
Czasy w strefie GMT +2. Teraz jest 22:07.