Register
Zapomniales hasla?
Wróć   Files4you.org - Forum wielotematyczne > Download > FILMY > Blu-Ray, DVD-R & High Definition > 2001: Odyseja kosmiczna / 2001: A Space Odyssey (1968)



Stare 8.10.2011, 18:36   #1
CarRip
Elite Member
 
Awatar CarRip
 
Domyślnie 2001: Odyseja kosmiczna / 2001: A Space Odyssey (1968)

2001: Odyseja kosmiczna / 2001: A Space Odyssey (1968) PL.Blu-ray.720p.x264-Crash POLSKI LEKTOR

2001: Odyseja kosmiczna / 2001: A Space Odyssey (1968)

http://www.filmweb.pl/2001.Odyseja.Kosmiczna

czas trwania: 2 godz. 21 min.
gatunek: Przygodowy, Sci-Fi
premiera: 30 grudnia 1990 (Polska) 1990-12-30 2 kwietnia 1968 (Świat) 1968-04-02
reżyseria: Stanley Kubrick
scenariusz: Arthur C. Clarke, Stanley Kubrick

Jeden z najwybitniejszych filmów fantastycznych w historii kina. Składa się z trzech luźno powiązanych ze sobą elementów. Akcja pierwszego epizodu rozgrywa się w czasach prehistorycznych, drugi opisuje odkrycie na Księżycu tajemniczego monumentu, a trzeci opowiada o zagrożonych przez zbuntowany komputer kosmonautach.

2001: Odyseja kosmiczna / 2001: A Space Odyssey (1968)
2001: Odyseja kosmiczna / 2001: A Space Odyssey (1968)

Format : Matroska
File size : 5.43 GiB
Duration : 2h 28mn
Overall bit rate : 5 221 Kbps
Video
ID : 1
Format : AVC
Format/Info : Advanced Video Codec
Format profile : [email protected]
Duration : 2h 28mn
Bit rate : 4 769 Kbps
Width : 1 280 pixels
Height : 576 pixels
Display aspect ratio : 2.222
Frame rate : 23.976 fps
Stream size : 4.85 GiB (89%)
Writing library : x264 core 56 svn-680
Language : English
Audio
Format : AC-3
Duration : 2h 28mn
Bit rate mode : Constant
Bit rate : 448 Kbps
Channel(s) : 6 channels
Stream size : 477 MiB (9%)
Title : Crash-Polski
Language : Polish
WERSJA HD 720p POLSKI LEKTOR


Treść widoczna tylko dla użytkowników forum Files4You.org. Zaloguj się lub załóż darmowe konto aby otrzymać dostęp do niewidocznej treści.






Treść widoczna tylko dla użytkowników forum Files4You.org. Zaloguj się lub załóż darmowe konto aby otrzymać dostęp do niewidocznej treści.







Treść widoczna tylko dla użytkowników forum Files4You.org. Zaloguj się lub załóż darmowe konto aby otrzymać dostęp do niewidocznej treści.






Treść widoczna tylko dla użytkowników forum Files4You.org. Zaloguj się lub załóż darmowe konto aby otrzymać dostęp do niewidocznej treści.







Treść widoczna tylko dla użytkowników forum Files4You.org. Zaloguj się lub załóż darmowe konto aby otrzymać dostęp do niewidocznej treści.






Treść widoczna tylko dla użytkowników forum Files4You.org. Zaloguj się lub załóż darmowe konto aby otrzymać dostęp do niewidocznej treści.






Treść widoczna tylko dla użytkowników forum Files4You.org. Zaloguj się lub załóż darmowe konto aby otrzymać dostęp do niewidocznej treści.






Treść widoczna tylko dla użytkowników forum Files4You.org. Zaloguj się lub załóż darmowe konto aby otrzymać dostęp do niewidocznej treści.






Treść widoczna tylko dla użytkowników forum Files4You.org. Zaloguj się lub załóż darmowe konto aby otrzymać dostęp do niewidocznej treści.



CarRip jest nieaktywny  
Stare 1.11.2012, 01:28   #2
Dark.Wizard
Uplinker
 
Awatar Dark.Wizard
 
Ostatnie osiągnięcia
Domyślnie Odp: 2001: Odyseja kosmiczna / 2001: A Space Odyssey (1968)

2001: Odyseja kosmiczna / 2001: A Space Odyssey (1968) PL.720p.BluRay.AC3.x264-Orzech / Lektor PL





Format : Matroska at 5 219 Kbps
Length : 5.43 GiB for 2h 28mn 51s 979ms

Video #0 : AVC at 4 769 Kbps
Aspect : 1280 x 576 (2.222)

Audio #0 : AC-3 at 448 Kbps
Infos : 6 channels, 48.0 KHz

Szybkie serwery dla free userow




Treść widoczna tylko dla użytkowników forum Files4You.org. Zaloguj się lub załóż darmowe konto aby otrzymać dostęp do niewidocznej treści.



Dark.Wizard jest nieaktywny  
Stare 27.10.2015, 13:11   #3
Trytonik
Uplinker
 
Awatar Trytonik
 
Domyślnie 2001: Odyseja Kosmiczna / 2001: A Space Odyssey (1968)

2001: Odyseja Kosmiczna / 2001: A Space Odyssey (1968) PL.720p.BRRip.XviD.AC3-NINE / Lektor PL

Spoiler:
2001: Odyseja kosmiczna / 2001: A Space Odyssey (1968)



Format : AVI at 3 582 Kbps
Length : 3.72 GiB for 2h 28min 52s

Video #0 : XviD at 3 189 Kbps
Aspect : 1280 x 544 (2,35:1) at 23.976 fps

Audio #0 : AC3 at 384 Kbps
Infos : 6 channels, 48.0 KHz
Language : lektor pl


Treść widoczna tylko dla użytkowników forum Files4You.org. Zaloguj się lub załóż darmowe konto aby otrzymać dostęp do niewidocznej treści.






Treść widoczna tylko dla użytkowników forum Files4You.org. Zaloguj się lub załóż darmowe konto aby otrzymać dostęp do niewidocznej treści.






Treść widoczna tylko dla użytkowników forum Files4You.org. Zaloguj się lub załóż darmowe konto aby otrzymać dostęp do niewidocznej treści.




Ostatnio edytowane przez Trytonik ; 23.07.2018 o 09:53 Powód: aktualizacja
Trytonik jest nieaktywny  
Stare 1.11.2015, 10:50   #4
roper
Elite Member
 
Awatar roper
 
Domyślnie

2001: Odyseja kosmiczna / 2001: A Space Odyssey (1968) PL.720p.BDRip.XviD.AC3-ELiTE / Lektor PL

Format : AVI at 4.082 Kb/s
Length : 4,24 GB for 2h 28 min. 51s 589ms

Video #0 : MPEG-4 Visual at 3.625 Kb/s
Aspect : 1280 x 576 (2.222) at 23.976 fps

Audio #0 : AC-3 at 448 Kb/s
Infos : 6 kanałów, 48,0 KHz



Treść widoczna tylko dla użytkowników forum Files4You.org. Zaloguj się lub załóż darmowe konto aby otrzymać dostęp do niewidocznej treści.



roper jest nieaktywny  
Stare 22.11.2015, 11:52   #5
*Motylek*
Friend

 
Awatar *Motylek*
 
Domyślnie

2001: Odyseja kosmiczna / 2001: A Space Odyssey (1968) 60FPS 1080p.BluRay.x264.LPCM.5.1.DTS.AC3-SONDA | Lektor i Napisy PL

Spoiler:
General
Format : Matroska
Format version : Version 2
File size : 35.5 GiB
Duration : 2h 28mn
Overall bit rate : 34.1 Mbps
Movie name : 2001.A.Space.Odyssey.1968.PL.1080p.60FPS.BDRip by Sonda [AT-Team]
Encoded date : UTC 2015-11-11 09:19:31
Writing application : mkvmerge v5.7.0 ('The Whirlwind') built on Jul 8 2012 20:08:51
Writing library : libebml v1.2.3 + libmatroska v1.3.0

Video
ID : 1
Format : AVC
Format/Info : Advanced Video Codec
Format profile : [email protected]
Format settings, CABAC : Yes
Format settings, ReFrames : 4 frames
Codec ID : V_MPEG4/ISO/AVC
Duration : 2h 28mn
Nominal bit rate : 28.0 Mbps
Width : 1 920 pixels
Height : 1 080 pixels
Display aspect ratio : 16:9 (2.20:1)
Frame rate mode : Constant
Frame rate : 60.000 fps
Original frame rate : 59.940 fps
Color space : YUV
Chroma subsampling : 4:2:0
Bit depth : 8 bits
Scan type : Progressive
Bits/(Pixel*Frame) : 0.225
Title : 60FPS Rip by Sonda
Writing library : x264 core
Encoding settings : cabac=1 / ref=4 / deblock=1:-1:-1 / rc=2pass
Default : Yes
Forced : No

Audio #1
ID : 2
Format : AC-3
Format/Info : Audio Coding 3
Mode extension : CM (complete main)
Format settings, Endianness : Big
Codec ID : A_AC3
Duration : 2h 28mn
Bit rate mode : Constant
Bit rate : 448 Kbps
Channel count : 6 channels
Channel positions : Front: L C R, Side: L R, LFE
Sampling rate : 48.0 KHz
Bit depth : 16 bits
Compression mode : Lossy
Stream size : 477 MiB (1%)
Title : AC3 5.1 Lektor PL
Language : Polish
Default : Yes
Forced : Yes

Audio #2
ID : 3
Format : AC-3
Format/Info : Audio Coding 3
Mode extension : CM (complete main)
Format settings, Endianness : Big
Codec ID : A_AC3
Duration : 2h 28mn
Bit rate mode : Constant
Bit rate : 448 Kbps
Channel count : 6 channels
Channel positions : Front: L C R, Side: L R, LFE
Sampling rate : 48.0 KHz
Bit depth : 16 bits
Compression mode : Lossy
Stream size : 477 MiB (1%)
Title : AC3 5.1
Language : English
Default : No
Forced : No

Audio #3
ID : 4
Format : DTS
Format/Info : Digital Theater Systems
Mode : 16
Format settings, Endianness : Big
Codec ID : A_DTS
Duration : 2h 28mn
Bit rate mode : Constant
Bit rate : 1 510 Kbps
Channel count : 6 channels
Channel positions : Front: L C R, Side: L R, LFE
Sampling rate : 48.0 KHz
Bit depth : 24 bits
Compression mode : Lossy
Stream size : 1.57 GiB (4%)
Title : DTS 5.1
Language : English
Default : No
Forced : No

Audio #4
ID : 5
Format : PCM
Codec ID : A_PCM/INT/LIT
Duration : 2h 28mn
Bit rate mode : Constant
Channel count : 6 channels
Sampling rate : 48.0 KHz
Bit depth : 16 bits
Title : LPCM 5.1 Original
Language : English
Default : No
Forced : No

Text #1
ID : 6
Format : UTF-8
Codec ID : S_TEXT/UTF8
Codec ID/Info : UTF-8 Plain Text
Language : Polish
Default : No
Forced : No

Text #2
ID : 7
Format : PGS
Muxing mode : zlib
Codec ID : S_HDMV/PGS
Codec ID/Info : The same subtitle format used on BDs/HD-DVDs
Language : English
Default : No
Forced : No

Source:
A/V-2001.A.Space.Odyssey.1968.1080p.BluRay.VC-1.LPCM.5.1-FGT
DTS-BRRip.1080p
Lektor PL - HDBT





Treść widoczna tylko dla użytkowników forum Files4You.org. Zaloguj się lub załóż darmowe konto aby otrzymać dostęp do niewidocznej treści.



*Motylek* jest nieaktywny  
Słowa kluczowe związane z tematem 2001: Odyseja kosmiczna / 2001: A Space Odyssey (1968):
2001: Odyseja kosmiczna / 2001: A Space Odyssey (1968) bez płacenia, 2001: Odyseja kosmiczna / 2001: A Space Odyssey (1968) no limits, 2001: Odyseja kosmiczna / 2001: A Space Odyssey (1968) bez premium, 2001: Odyseja kosmiczna / 2001: A Space Odyssey (1968) bez limitów, 2001: Odyseja kosmiczna / 2001: A Space Odyssey (1968) bez konta premium, 2001: Odyseja kosmiczna / 2001: A Space Odyssey (1968) za darmo, 2001: Odyseja kosmiczna / 2001: A Space Odyssey (1968) do pobrania, 2001: Odyseja kosmiczna / 2001: A Space Odyssey (1968) download, 2001: Odyseja kosmiczna / 2001: A Space Odyssey (1968) do ściągnięcia, 2001: Odyseja kosmiczna / 2001: A Space Odyssey (1968) free, 2001: Odyseja kosmiczna / 2001: A Space Odyssey (1968) files4you, 2001: Odyseja kosmiczna / 2001: A Space Odyssey (1968) exsite, 2001: Odyseja kosmiczna / 2001: A Space Odyssey (1968) zajefajna, 2001: Odyseja kosmiczna / 2001: A Space Odyssey (1968) peb, 2001: Odyseja kosmiczna / 2001: A Space Odyssey (1968) chomikuj, 2001: Odyseja kosmiczna / 2001: A Space Odyssey (1968) precyl, 2001: Odyseja kosmiczna / 2001: A Space Odyssey (1968) darkwarez, 2001: Odyseja kosmiczna / 2001: A Space Odyssey (1968) rar, 2001: Odyseja kosmiczna / 2001: A Space Odyssey (1968) filestube, 2001: Odyseja kosmiczna / 2001: A Space Odyssey (1968) elitewarez, 2001: Odyseja kosmiczna / 2001: A Space Odyssey (1968) catshare, 2001: Odyseja kosmiczna / 2001: A Space Odyssey (1968) rapidu, 2001: Odyseja kosmiczna / 2001: A Space Odyssey (1968) fileshark, 2001: Odyseja kosmiczna / 2001: A Space Odyssey (1968) lunaticfiles, 2001: Odyseja kosmiczna / 2001: A Space Odyssey (1968) uploadable, 2001: Odyseja kosmiczna / 2001: A Space Odyssey (1968) rapidgator, 2001: Odyseja kosmiczna / 2001: A Space Odyssey (1968) uploaded, 2001: Odyseja kosmiczna / 2001: A Space Odyssey (1968) turbobit, 2001: Odyseja kosmiczna / 2001: A Space Odyssey (1968) warez, 2001: Odyseja kosmiczna / 2001: A Space Odyssey (1968) portal, 2001: Odyseja kosmiczna / 2001: A Space Odyssey (1968) warez-bb
Przy okazji sprawdź poniższe tematy:
Narzędzia wątku


Podobne wątki
Wątek Autor wątku Forum Odpowiedzi Ostatni post / autor
Odyseja Komiczna / A Space Travesty (2001) OGRYZ Filmy MQ/LQ 6 26.10.2016 16:22


Files4You Fanpage

Nabór do ekipy!

Rapids24.pl


Tinypic.pl

Files4You.org - Kontakt - Archiwum - Warunki korzystania z serwisu - Grupy - Na górę

Powered by vBulletin®
by Files4You.Net 2005-2015
Czasy w strefie GMT +2. Teraz jest 04:37.