Register
Zapomniales hasla?



Stare 13.06.2019, 21:22   #1
*Motylek*
Friend

 
Awatar *Motylek*
 
Domyślnie Shadows in Mind (2019)

Shadows in Mind (2019) 1080p.WEB-DL.DD2.0.H264-FGT

3.38 GB

Shadows in Mind (2019)


*Country: USA
Language: English*
*Genres: Thriller*

Simon *zarządzania linią kryzysową LGBT uważa, że ​​większość jego rozmówców korzysta z tej usługi z powodów ,które są błahe.To wszystko zmienia się, gdy dostaje telefon od Danny'ego *, który mówi, że jest w trakcie samobójstwa.Simon stara się połączyć z Dannym i dowiedzieć się, dlaczego zaczął rozważać tak drastyczne działanie.



*Informacje o pliku video: *

Spoiler:
Video
ID : 1
Format : AVC
Format/Info : Advanced Video Codec
Format profile : [email protected]
Format settings : CABAC / 4 Ref Frames
Format settings, CABAC : Yes
Format settings, ReFrames : 4 frames
Codec ID : V_MPEG4/ISO/AVC
Duration : 1 h 32 min
Bit rate : 4 770 kb/s
Width : 1 920 pixels
Height : 1 000 pixels
Display aspect ratio : 1.920
Frame rate mode : Constant
Frame rate : 23.976 FPS
Color space : YUV
Chroma subsampling : 4:2:0
Bit depth : 8 bits
Scan type : Progressive
Bits/(Pixel*Frame) : 0.104
Stream size : 3.08 GiB (96%)
Title : Shadows.in.Mind.2019.1080p.WEB-DL.DD5.1.H264-FGT
Language : English
Default : Yes
Forced : No
Color range : Limited
Color primaries : BT.709
Transfer characteristics : BT.709
Matrix coefficients : BT.709

Audio
ID : 2
Format : AC-3
Format/Info : Audio Coding 3
Commercial name : Dolby Digital
Codec ID : A_AC3
Duration : 1 h 32 min
Bit rate mode : Constant
Bit rate : 192 kb/s
Channel(s) : 2 channels
Channel layout : L R
Sampling rate : 48.0 kHz
Frame rate : 31.250 FPS (1536 SPF)
Bit depth : 16 bits
Compression mode : Lossy
Stream size : 127 MiB (4%)
Title : Shadows.in.Mind.2019.1080p.WEB-DL.DD5.1.H264-FGT
Language : English
Service kind : Complete Main
Default : Yes
Forced : No




Shadows in Mind (2019)



Treść widoczna tylko dla użytkowników forum Files4You.org. Zaloguj się lub załóż darmowe konto aby otrzymać dostęp do niewidocznej treści.



*Motylek* jest teraz aktywny  
Słowa kluczowe związane z tematem Shadows in Mind (2019):
Shadows in Mind (2019) bez płacenia, Shadows in Mind (2019) no limits, Shadows in Mind (2019) bez premium, Shadows in Mind (2019) bez limitów, Shadows in Mind (2019) bez konta premium, Shadows in Mind (2019) za darmo, Shadows in Mind (2019) do pobrania, Shadows in Mind (2019) download, Shadows in Mind (2019) do ściągnięcia, Shadows in Mind (2019) free, Shadows in Mind (2019) files4you, Shadows in Mind (2019) exsite, Shadows in Mind (2019) zajefajna, Shadows in Mind (2019) peb, Shadows in Mind (2019) chomikuj, Shadows in Mind (2019) precyl, Shadows in Mind (2019) darkwarez, Shadows in Mind (2019) rar, Shadows in Mind (2019) filestube, Shadows in Mind (2019) elitewarez, Shadows in Mind (2019) catshare, Shadows in Mind (2019) rapidu, Shadows in Mind (2019) fileshark, Shadows in Mind (2019) lunaticfiles, Shadows in Mind (2019) uploadable, Shadows in Mind (2019) rapidgator, Shadows in Mind (2019) uploaded, Shadows in Mind (2019) turbobit, Shadows in Mind (2019) warez, Shadows in Mind (2019) portal, Shadows in Mind (2019) warez-bb
Przy okazji sprawdź poniższe tematy:
Narzędzia wątku


Podobne wątki
Wątek Autor wątku Forum Odpowiedzi Ostatni post / autor
Oxymorya -Save Your Mind (2019) ad-team Audio HQ 0 8.05.2019 14:02
Sekiro: Shadows Die Twice (2019) Vaniszek Gry na PC 0 21.03.2019 20:22
Dido - Still On My Mind (2019) galerida Pop 0 12.03.2019 18:10
VA - Chilled Mind Vol. 2 (Fantastic Free Your Mind Music) (2017) TheCornor Pop 0 21.07.2017 22:02
Michael Mind Project - State of Mind (2013) qita Albumy 1 5.01.2013 03:25


Files4You Fanpage

Nabór do ekipy!

Rapids24.pl


Tinypic.pl

Files4You.org - Kontakt - Archiwum - Warunki korzystania z serwisu - Grupy - Na górę

Powered by vBulletin®
by Files4You.Net 2005-2015
Czasy w strefie GMT +2. Teraz jest 15:26.