Register
Zapomniales hasla?



Stare 13.06.2019, 15:35   #1
*Motylek*
Friend

 
Awatar *Motylek*
 
Domyślnie Loss Prevention (2018)

Loss Prevention (2018) 1080p.WEB-DL.DD5.1.H264-FGT

3.35 GB

Loss Prevention (2018)


Genres: Action | Comedy
Country: USA
Language: English

Nik pracuje jako barman w barze swojego ojca „The Soggy Weasel”. Ich związek jest trochę napięty, ponieważ ma większe plany na życie i dlatego, że woli dziewczyny od mężczyzn. Niemniej jednak Murphy kocha swoją nieszczęsną córkę.





Informacje o pliku video:

Spoiler:
Video
ID : 1
Format : AVC
Format/Info : Advanced Video Codec
Format profile : [email protected]
Format settings : CABAC / 4 Ref Frames
Format settings, CABAC : Yes
Format settings, ReFrames : 4 frames
Codec ID : V_MPEG4/ISO/AVC
Duration : 1 h 28 min
Bit rate : 5 039 kb/s
Width : 1 908 pixels
Height : 1 036 pixels
Display aspect ratio : 1.85:1
Frame rate mode : Constant
Frame rate : 23.976 (24000/1001) FPS
Color space : YUV
Chroma subsampling : 4:2:0
Bit depth : 8 bits
Scan type : Progressive
Bits/(Pixel*Frame) : 0.106
Stream size : 3.11 GiB (93%)
Title : Loss.Prevention.2018.1080p.WEB-DL.DD5.1.H264-FGT
Language : English
Default : Yes
Forced : No
Color range : Limited
Color primaries : BT.709
Transfer characteristics : BT.709
Matrix coefficients : BT.709

Audio
ID : 2
Format : AC-3
Format/Info : Audio Coding 3
Commercial name : Dolby Digital
Codec ID : A_AC3
Duration : 1 h 28 min
Bit rate mode : Constant
Bit rate : 384 kb/s
Channel(s) : 6 channels
Channel layout : L R C LFE Ls Rs
Sampling rate : 48.0 kHz
Frame rate : 31.250 FPS (1536 SPF)
Bit depth : 16 bits
Compression mode : Lossy
Stream size : 243 MiB (7%)
Title : Loss.Prevention.2018.1080p.WEB-DL.DD5.1.H264-FGT
Language : English
Service kind : Complete Main
Default : Yes
Forced : No

Text
ID : 3
Format : UTF-8
Codec ID : S_TEXT/UTF8
Codec ID/Info : UTF-8 Plain Text
Duration : 1 h 27 min
Bit rate : 93 b/s
Count of elements : 1725
Stream size : 60.0 KiB (0%)
Language : English
Default : Yes
Forced : No



Loss Prevention (2018)



Treść widoczna tylko dla użytkowników forum Files4You.org. Zaloguj się lub załóż darmowe konto aby otrzymać dostęp do niewidocznej treści.



*Motylek* jest nieaktywny  
Słowa kluczowe związane z tematem Loss Prevention (2018):
Loss Prevention (2018) bez płacenia, Loss Prevention (2018) no limits, Loss Prevention (2018) bez premium, Loss Prevention (2018) bez limitów, Loss Prevention (2018) bez konta premium, Loss Prevention (2018) za darmo, Loss Prevention (2018) do pobrania, Loss Prevention (2018) download, Loss Prevention (2018) do ściągnięcia, Loss Prevention (2018) free, Loss Prevention (2018) files4you, Loss Prevention (2018) exsite, Loss Prevention (2018) zajefajna, Loss Prevention (2018) peb, Loss Prevention (2018) chomikuj, Loss Prevention (2018) precyl, Loss Prevention (2018) darkwarez, Loss Prevention (2018) rar, Loss Prevention (2018) filestube, Loss Prevention (2018) elitewarez, Loss Prevention (2018) catshare, Loss Prevention (2018) rapidu, Loss Prevention (2018) fileshark, Loss Prevention (2018) lunaticfiles, Loss Prevention (2018) uploadable, Loss Prevention (2018) rapidgator, Loss Prevention (2018) uploaded, Loss Prevention (2018) turbobit, Loss Prevention (2018) warez, Loss Prevention (2018) portal, Loss Prevention (2018) warez-bb
Przy okazji sprawdź poniższe tematy:
Narzędzia wątku


Podobne wątki
Wątek Autor wątku Forum Odpowiedzi Ostatni post / autor
2019-07-01 Prevention ad-team Czasopisma [pozostałe języki] 0 8.06.2019 17:31
Leveraging Google Cloud Armor, Security Scanner and the Data Loss Prevention API Prikolica Tutoriale 0 16.04.2019 20:33
Kłopotliwa żałoba / Sorry for Your Loss (2018) markusdwa Filmy MQ/LQ 8 7.01.2019 02:43
Kłopotliwa żałoba / Sorry for Your Loss (2018) markusdwa Blu-Ray, DVD-R & High Definition 2 5.12.2018 17:49
Prevention USA mark167 Czasopisma [pozostałe języki] 0 11.09.2012 10:18


Files4You Fanpage

Nabór do ekipy!

Rapids24.pl


Tinypic.pl

Files4You.org - Kontakt - Archiwum - Warunki korzystania z serwisu - Grupy - Na górę

Powered by vBulletin®
by Files4You.Net 2005-2015
Czasy w strefie GMT +2. Teraz jest 16:38.