Register
Zapomniales hasla?
Wróć   Files4you.org - Forum wielotematyczne > Download > FILMY > Blu-Ray, DVD-R & High Definition > Król złodziei / King of Thieves (2018)



Stare 14.01.2019, 12:05   #1
*Motylek*
Friend

 
Awatar *Motylek*
 
Domyślnie Król złodziei / King of Thieves (2018)

Król złodziei / King of Thieves (2018) 1080p.WEB-DL.DD5.1.H264-FGT

3.73 GB

Król złodziei / King of Thieves (2018)


reżyseria: James Marsh
scenariusz:Joe Penhall
gatunek: Dramat,Kryminał
produkcja: Wielka Brytania
premiera: 14 września 2018 (świat)

Historia filmu Jamesa Marsha pt.: The King of Thieves inspirowana jest prawdziwą historią rabunku drogocennych diamentów z Hatton Garden.



Informacje o pliku video:

Spoiler:
Video
ID : 1
Format : AVC
Format/Info : Advanced Video Codec
Format profile : [email protected]
Format settings : CABAC / 5 Ref Frames
Format settings, CABAC : Yes
Format settings, ReFrames : 5 frames
Codec ID : V_MPEG4/ISO/AVC
Duration : 1 h 47 min
Bit rate : 4 572 kb/s
Width : 1 916 pixels
Height : 796 pixels
Display aspect ratio : 2.40:1
Frame rate mode : Constant
Frame rate : 24.000 FPS
Color space : YUV
Chroma subsampling : 4:2:0
Bit depth : 8 bits
Scan type : Progressive
Bits/(Pixel*Frame) : 0.125
Stream size : 3.44 GiB (92%)
Title : King.of.Thieves.2018.1080p.WEB-DL.DD5.1.H264-FGT
Language : English
Default : Yes
Forced : No
Color range : Limited
Color primaries : BT.709
Transfer characteristics : BT.709
Matrix coefficients : BT.709

Audio
ID : 2
Format : AC-3
Format/Info : Audio Coding 3
Commercial name : Dolby Digital
Codec ID : A_AC3
Duration : 1 h 47 min
Bit rate mode : Constant
Bit rate : 384 kb/s
Channel(s) : 6 channels
Channel layout : L R C LFE Ls Rs
Sampling rate : 48.0 kHz
Frame rate : 31.250 FPS (1536 SPF)
Bit depth : 16 bits
Compression mode : Lossy
Delay relative to video : -42 ms
Stream size : 296 MiB (8%)
Title : King.of.Thieves.2018.1080p.WEB-DL.DD5.1.H264-FGT
Language : English
Service kind : Complete Main
Default : Yes
Forced : No




Król złodziei / King of Thieves (2018)



Treść widoczna tylko dla użytkowników forum Files4You.org. Zaloguj się lub załóż darmowe konto aby otrzymać dostęp do niewidocznej treści.



*Motylek* jest nieaktywny  

Tagi do tematu Król złodziei / King of Thieves (2018)
2018, king, król, thieves, złodziei
Słowa kluczowe związane z tematem Król złodziei / King of Thieves (2018):
Król złodziei / King of Thieves (2018) bez płacenia, Król złodziei / King of Thieves (2018) no limits, Król złodziei / King of Thieves (2018) bez premium, Król złodziei / King of Thieves (2018) bez limitów, Król złodziei / King of Thieves (2018) bez konta premium, Król złodziei / King of Thieves (2018) za darmo, Król złodziei / King of Thieves (2018) do pobrania, Król złodziei / King of Thieves (2018) download, Król złodziei / King of Thieves (2018) do ściągnięcia, Król złodziei / King of Thieves (2018) free, Król złodziei / King of Thieves (2018) files4you, Król złodziei / King of Thieves (2018) exsite, Król złodziei / King of Thieves (2018) zajefajna, Król złodziei / King of Thieves (2018) peb, Król złodziei / King of Thieves (2018) chomikuj, Król złodziei / King of Thieves (2018) precyl, Król złodziei / King of Thieves (2018) darkwarez, Król złodziei / King of Thieves (2018) rar, Król złodziei / King of Thieves (2018) filestube, Król złodziei / King of Thieves (2018) elitewarez, Król złodziei / King of Thieves (2018) catshare, Król złodziei / King of Thieves (2018) rapidu, Król złodziei / King of Thieves (2018) fileshark, Król złodziei / King of Thieves (2018) lunaticfiles, Król złodziei / King of Thieves (2018) uploadable, Król złodziei / King of Thieves (2018) rapidgator, Król złodziei / King of Thieves (2018) uploaded, Król złodziei / King of Thieves (2018) turbobit, Król złodziei / King of Thieves (2018) warez, Król złodziei / King of Thieves (2018) portal, Król złodziei / King of Thieves (2018) warez-bb
Przy okazji sprawdź poniższe tematy:
Narzędzia wątku


Podobne wątki
Wątek Autor wątku Forum Odpowiedzi Ostatni post / autor
Cornelia Funke - Król złodziei toczev Audiobooki [PL] 0 30.08.2017 15:53
Księżniczka złodziei / Princess of thieves (2001) roper Filmy MQ/LQ 0 17.10.2014 11:37
Aladyn i król złodziei / Aladdin and the King of Thieves (1996) markusdwa Filmy MQ/LQ 0 26.09.2013 18:27


Files4You Fanpage

Nabór do ekipy!

Rapids24.pl


Tinypic.pl

Files4You.org - Kontakt - Archiwum - Warunki korzystania z serwisu - Grupy - Na górę

Powered by vBulletin®
by Files4You.Net 2005-2015
Czasy w strefie GMT +2. Teraz jest 22:51.