Register
Zapomniales hasla?
Wróć   Files4you.org - Forum wielotematyczne > Download > MUZYKA > Exclusive Section (HQ) > Koncerty HQ > Dire Straits - On the Night, Arenes de Nimes & Rotterdam 1992 (2015)



Stare 5.03.2017, 21:50   #1
*Motylek*
Friend

 
Awatar *Motylek*
 
Domyślnie Dire Straits - On the Night, Arenes de Nimes & Rotterdam 1992 (2015)

Dire Straits - On the Night, Arenes de Nimes & Rotterdam 1992 (2015) 1080p.TVHDRip.x264.AC3-alE13

Dire Straits - On the Night, Arenes de Nimes & Rotterdam 1992 (2015)

produkcja: Germany
dаta: 2015
reżyseria: tv ORF
producent: Paul Cummins
gatunek: dokument, rock
czas: 01:33:50

Dokumentalny zapis filmowy koncertu Dire Straits na Les Arenes w Nimes (Francja) i na Feyenoord Stadium w Rotterdamie (Holandia) w maju 1992 roku.

track list:

1. "Calling Elvis"
2. "Walk of Life"
3. "Heavy Fuel"
4. "Romeo and Juliet"
5. "The Bug"
6. "Private Investigations"
7. "Your Latest Trick"
8. "On Every Street"
9. "You and Your Friend"
10. "Money for Nothing" (Mark Knopfler, Gordon Sumner)
11. "Brothers in Arms"
12. "Solid Rock"
13. "Local Hero Wild Theme"


Dire Straits - On the Night, Arenes de Nimes & Rotterdam 1992 (2015) 1080p.TVHDRip.x264.AC3-alE13

Spoiler:
FFormat : Matroska
Format version : Version 4 / Version 2
File size : 6.32 GiB
Duration : 1 h 33 min
Overall bit rate mode : Constant
Overall bit rate : 9 644 kb/s
Movie name : Dire Straits On the Night, Arenes de Nimes & Rotterdam 1992 (2015)-alE13
Encoded date : UTC 2017-03-05 05:12:53
Writing application : mkvmerge v7.9.0 ('Birds') 64bit
Writing library : libebml v1.3.1 + libmatroska v1.4.2
Cover : Yes
Attachments : cover.jpg

Video
ID : 2
Format : AVC
Format/Info : Advanced Video Codec
Format profile : [email protected]
Format settings, CABAC : Yes
Format settings, ReFrames : 2 frames
Format settings, GOP : M=1, N=12
Codec ID : V_MPEG4/ISO/AVC
Duration : 1 h 33 min
Bit rate mode : Constant
Bit rate : 9 199 kb/s
Width : 1 920 pixels
Height : 1 080 pixels
Display aspect ratio : 16:9
Frame rate mode : Constant
Frame rate : 60.000 FPS
Color space : YUV
Chroma subsampling : 4:2:0
Bit depth : 8 bits
Scan type : Progressive
Bits/(Pixel*Frame) : 0.074
Stream size : 6.02 GiB (95%)
Title : Dire Straits On the Night, Arenes de Nimes & Rotterdam 1992 (2015)-alE13
Default : Yes
Forced : No

Audio
ID : 1
Format : AC-3
Format/Info : Audio Coding 3
Mode extension : CM (complete main)
Format settings, Endianness : Big
Codec ID : A_AC3
Duration : 1 h 33 min
Bit rate mode : Constant
Bit rate : 448 kb/s
Channel(s) : 6 channels
Channel positions : Front: L C R, Side: L R, LFE
Sampling rate : 48.0 kHz
Frame rate : 31.250 FPS (1536 spf)
Compression mode : Lossy
Stream size : 301 MiB (5%)
Title : Dire Straits On the Night, Arenes de Nimes & Rotterdam 1992 (2015)-alE13_AC3
Language : English
Default : Yes
Forced : No





Treść widoczna tylko dla użytkowników forum Files4You.org. Zaloguj się lub załóż darmowe konto aby otrzymać dostęp do niewidocznej treści.




Ostatnio edytowane przez *Motylek* ; 10.09.2017 o 21:09
*Motylek* jest nieaktywny  

Tagi do tematu Dire Straits - On the Night, Arenes de Nimes & Rotterdam 1992 (2015)
1992, 2015, arenes, dire, night, nimes, rotterdam, straits
Słowa kluczowe związane z tematem Dire Straits - On the Night, Arenes de Nimes & Rotterdam 1992 (2015):
Dire Straits - On the Night, Arenes de Nimes & Rotterdam 1992 (2015) bez płacenia, Dire Straits - On the Night, Arenes de Nimes & Rotterdam 1992 (2015) no limits, Dire Straits - On the Night, Arenes de Nimes & Rotterdam 1992 (2015) bez premium, Dire Straits - On the Night, Arenes de Nimes & Rotterdam 1992 (2015) bez limitów, Dire Straits - On the Night, Arenes de Nimes & Rotterdam 1992 (2015) bez konta premium, Dire Straits - On the Night, Arenes de Nimes & Rotterdam 1992 (2015) za darmo, Dire Straits - On the Night, Arenes de Nimes & Rotterdam 1992 (2015) do pobrania, Dire Straits - On the Night, Arenes de Nimes & Rotterdam 1992 (2015) download, Dire Straits - On the Night, Arenes de Nimes & Rotterdam 1992 (2015) do ściągnięcia, Dire Straits - On the Night, Arenes de Nimes & Rotterdam 1992 (2015) free, Dire Straits - On the Night, Arenes de Nimes & Rotterdam 1992 (2015) files4you, Dire Straits - On the Night, Arenes de Nimes & Rotterdam 1992 (2015) exsite, Dire Straits - On the Night, Arenes de Nimes & Rotterdam 1992 (2015) zajefajna, Dire Straits - On the Night, Arenes de Nimes & Rotterdam 1992 (2015) peb, Dire Straits - On the Night, Arenes de Nimes & Rotterdam 1992 (2015) chomikuj, Dire Straits - On the Night, Arenes de Nimes & Rotterdam 1992 (2015) precyl, Dire Straits - On the Night, Arenes de Nimes & Rotterdam 1992 (2015) darkwarez, Dire Straits - On the Night, Arenes de Nimes & Rotterdam 1992 (2015) rar, Dire Straits - On the Night, Arenes de Nimes & Rotterdam 1992 (2015) filestube, Dire Straits - On the Night, Arenes de Nimes & Rotterdam 1992 (2015) elitewarez, Dire Straits - On the Night, Arenes de Nimes & Rotterdam 1992 (2015) catshare, Dire Straits - On the Night, Arenes de Nimes & Rotterdam 1992 (2015) rapidu, Dire Straits - On the Night, Arenes de Nimes & Rotterdam 1992 (2015) fileshark, Dire Straits - On the Night, Arenes de Nimes & Rotterdam 1992 (2015) lunaticfiles, Dire Straits - On the Night, Arenes de Nimes & Rotterdam 1992 (2015) uploadable, Dire Straits - On the Night, Arenes de Nimes & Rotterdam 1992 (2015) rapidgator, Dire Straits - On the Night, Arenes de Nimes & Rotterdam 1992 (2015) uploaded, Dire Straits - On the Night, Arenes de Nimes & Rotterdam 1992 (2015) turbobit, Dire Straits - On the Night, Arenes de Nimes & Rotterdam 1992 (2015) warez, Dire Straits - On the Night, Arenes de Nimes & Rotterdam 1992 (2015) portal, Dire Straits - On the Night, Arenes de Nimes & Rotterdam 1992 (2015) warez-bb
Przy okazji sprawdź poniższe tematy:
Narzędzia wątku


Podobne wątki
Wątek Autor wątku Forum Odpowiedzi Ostatni post / autor
Dire Straits - On The Night (1993) Trytonik Metal & Rock & Punk 0 13.12.2016 19:59
Dire Straits - Discography (1977-2006) touron Dyskografie 0 3.05.2016 22:00
Dire Straits - On The Night (1993/2013) HDtv-1080p suhas89 Koncerty HQ 0 11.02.2014 12:10


Files4You Fanpage

Nabór do ekipy!

Rapids24.pl


Tinypic.pl

Files4You.org - Kontakt - Archiwum - Warunki korzystania z serwisu - Grupy - Na górę

Powered by vBulletin®
by Files4You.Net 2005-2015
Czasy w strefie GMT +2. Teraz jest 22:54.